<?xml version="1.0" standalone="no"?>
<!DOCTYPE svg PUBLIC "-//W3C//DTD SVG 1.1//EN" "http://www.w3.org/Graphics/SVG/1.1/DTD/svg11.dtd" >
<svg xmlns="http://www.w3.org/2000/svg" xmlns:xlink="http://www.w3.org/1999/xlink" version="1.1">
<metadata>
Created by FontForge 20201107 at Wed Nov  5 21:34:36 2014
 By 
SIL Open Font License, 1.1
</metadata>
<defs>
<font id="OpenDyslexicThree-Regular" horiz-adv-x="439" >
  <font-face 
    font-family="OpenDyslexic 3"
    font-weight="400"
    font-stretch="normal"
    units-per-em="1000"
    panose-1="0 0 0 0 0 0 0 0 0 0"
    ascent="800"
    descent="-200"
    x-height="547"
    cap-height="870"
    bbox="-81 -577.526 1436 1345"
    underline-thickness="50"
    underline-position="-213"
    unicode-range="U+000D-FB02"
  />
<missing-glyph horiz-adv-x="626" 
d="M139 2q0 -15 15 -15h319q15 0 15 15v700q0 15 -15 15h-319q-15 0 -15 -15v-700zM88 -177q-15 0 -15 15v930q0 15 15 15h450q15 0 15 -15v-930q0 -15 -15 -15h-450z" />
    <glyph glyph-name=".notdef" horiz-adv-x="626" 
d="M139 2q0 -15 15 -15h319q15 0 15 15v700q0 15 -15 15h-319q-15 0 -15 -15v-700zM88 -177q-15 0 -15 15v930q0 15 15 15h450q15 0 15 -15v-930q0 -15 -15 -15h-450z" />
    <glyph glyph-name=".null" horiz-adv-x="0" 
 />
    <glyph glyph-name="nonmarkingreturn" unicode="&#xd;" horiz-adv-x="0" 
 />
    <glyph glyph-name="NULL" horiz-adv-x="146" 
 />
    <glyph glyph-name="NULL" horiz-adv-x="146" 
 />
    <glyph glyph-name="space" unicode=" " horiz-adv-x="850" 
 />
    <glyph glyph-name="exclam" unicode="!" horiz-adv-x="295" 
d="M83 122q1 28 30 28h69q15 0 21.5 -7t8.5 -21l8 -92q3 -30 -28 -30h-88q-31 0 -28 30zM91 679l8 316q0 12 7 17t18 7l46 10q12 2 18.5 -5t6.5 -19l4 -326l23 -379q1 -25 -23 -25h-103q-24 0 -23 25z" />
    <glyph glyph-name="quotedbl" unicode="&#x22;" horiz-adv-x="459" 
d="M356 1030q25 0 25 -24l5 -238q0 -25 -24 -25h-60q-23 0 -23 25l3 238q0 24 25 24h49zM151 1030q25 0 25 -24l4 -238q0 -25 -24 -25h-59q-24 0 -24 25l5 238q0 24 25 24h48z" />
    <glyph glyph-name="numbersign" unicode="#" horiz-adv-x="799" 
d="M481 387q0 12 -4 18.5t-16 6.5h-113q-10 0 -18 -4.5t-8 -15.5v-89q0 -12 4 -19t16 -7h113q10 0 18 5t8 15v90zM295 718q13 0 17 -7t4 -21l2 -148q0 -13 4 -20t17 -7h119q11 0 19 5t8 16v161q0 11 8 16t19 5h41q13 0 17 -7t4 -21l3 -148q0 -13 4 -20t17 -7h104
q24 0 24 -24v-47q0 -24 -24 -24h-99q-11 0 -19 -5t-8 -16v-94q0 -13 4 -20t17 -7l105 -1q24 0 24 -25v-55q0 -25 -24 -25h-99q-11 0 -19 -5t-8 -16l1 -130q0 -11 -8.5 -16t-19.5 -5h-44q-13 0 -17 7t-4 20l1 118q0 13 -4 20t-17 7h-109q-37 0 -37 -21l1 -130q0 -11 -8 -16
t-19 -5h-44q-13 0 -17 7t-4 20l1 118q0 13 -4 20t-17 7h-109q-25 0 -25 25v55q0 25 25 25h104q11 0 18.5 5t7.5 16l1 95q0 12 -4 19.5t-17 7.5h-111q-24 0 -24 24v47q0 24 24 24h104q11 0 19.5 5t8.5 16v161q0 11 8 16t19 5h39z" />
    <glyph glyph-name="dollar" unicode="$" horiz-adv-x="705" 
d="M381 195q1 -31 31 -26q24 4 43.5 9.5t33 15t21 24t7.5 37.5q0 86 -107 116q-17 5 -25.5 -2.5t-7.5 -22.5zM318 718q0 15 -8.5 22.5t-22.5 4.5q-60 -13 -91.5 -48.5t-31.5 -89.5q0 -45 29.5 -76.5t87.5 -45.5q14 -4 23 3t9 22zM397 -116q1 -30 -29 -30h-43q-30 0 -27 31
l9 114q1 28 -27 31q-45 4 -90.5 15t-93.5 31q-23 9 -23 34l2 98q0 17 10 22.5t25 -3.5q43 -24 86.5 -38t85.5 -19q31 -3 31 27l2 173q0 26 -26 32q-108 25 -157 74t-50 131q-1 99 56 151.5t162 63.5q29 3 29 30l2 79q0 14 7.5 15.5t21.5 1.5q14 -1 20.5 -2.5t6.5 -15.5v-77
q0 -27 27 -30q75 -6 149 -29q25 -8 24 -33l-1 -28q-1 -34 -33 -20q-34 16 -69 25t-70 13q-29 3 -29 -29l-4 -223q0 -26 26 -31q58 -12 100.5 -29t70 -41.5t40.5 -57t14 -74.5q1 -68 -14.5 -111t-44 -68.5t-68 -37.5t-87.5 -18q-29 -3 -27 -32z" />
    <glyph glyph-name="percent" unicode="%" horiz-adv-x="792" 
d="M551 291q-42 0 -66 -33.5t-24 -93.5q0 -45 24 -61.5t66 -16.5t66 16.5t24 61.5q0 60 -24 93.5t-66 33.5zM551 353q78 0 123 -53.5t45 -144.5q0 -93 -45 -146t-123 -53t-123.5 53t-45.5 146t45.5 145.5t123.5 52.5zM242 816q-43 0 -67 -35t-24 -98q0 -48 24 -66.5
t67 -18.5q42 0 66 18.5t24 66.5q0 63 -24 98t-66 35zM242 878q78 0 123.5 -52.5t45.5 -145.5q0 -94 -45.5 -146.5t-123.5 -52.5t-123.5 53t-45.5 146q0 91 45.5 144.5t123.5 53.5zM540 862q9 20 28 19l24 -1q14 -1 20 -8t1 -20l-359 -916q-8 -20 -28 -20l-62 2q-31 2 -20 29
z" />
    <glyph glyph-name="ampersand" unicode="&#x26;" horiz-adv-x="872" 
d="M477 190q24 18 4 41l-194 235q-13 16 -30 10l-11 -9q-42 -42 -61.5 -82.5t-19.5 -88.5q0 -10 3 -30.5t19 -41t50 -36t96 -15.5q12 0 33 0.5t43 2t41 5t27 9.5zM436 808q-21 25 -47.5 29.5t-52.5 -5.5t-48 -32t-35 -49t-13.5 -57t17.5 -57q6 -8 14 -19.5t20 -25.5
q10 -11 36 9q85 66 113.5 116.5t-4.5 90.5zM790 34q13 -14 8.5 -24.5t-24.5 -10.5h-75q-24 0 -35 14l-45 54q-8 10 -18.5 11.5t-22.5 -9.5q-32 -30 -57 -46.5t-47 -24.5t-42.5 -10t-43.5 -2q-86 0 -145.5 23.5t-97.5 63t-55 90.5t-17 105q0 136 132 243q20 17 6 40
q-40 64 -40 121q0 46 17 87t48 70.5t74 43.5t94 5q37 -6 63.5 -30.5t38 -56t7 -66t-28.5 -61.5q-26 -30 -61.5 -60.5t-69.5 -57.5q-12 -9 -2 -21l208 -233q11 -12 19.5 -10.5t20.5 15.5q25 30 34.5 66t14.5 68q4 28 31 28l63 1q30 0 27 -30q-5 -63 -23 -124t-57 -122
q-7 -11 -7.5 -20t9.5 -20z" />
    <glyph glyph-name="quotesingle" unicode="'" horiz-adv-x="259" 
d="M171 1009q16 0 15 -15l-30 -241q-2 -15 -15 -15h-53q-17 0 -15 15l30 241q1 15 15 15h53z" />
    <glyph glyph-name="parenleft" unicode="(" horiz-adv-x="456" 
d="M361 911q17 -2 21 -11.5t-7 -23.5q-92 -123 -137.5 -238.5t-55.5 -232.5t10 -240.5t59 -263.5q5 -16 -0.5 -25t-22.5 -7l-83 9q-12 2 -20.5 8t-10.5 17q-26 132 -37 266t4.5 262.5t63 248t138.5 223.5q14 17 36 14z" />
    <glyph glyph-name="parenright" unicode=")" horiz-adv-x="402" 
d="M169 913q12 0 19.5 -5t13.5 -15q73 -116 101.5 -241t24 -253.5t-36 -259.5t-78.5 -259q-9 -21 -34 -20l-83 4q-34 1 -19 35q60 131 99.5 249t48 235t-18.5 238.5t-99 259.5q-8 15 -2.5 24.5t22.5 8.5z" />
    <glyph glyph-name="asterisk" unicode="*" horiz-adv-x="611" 
d="M516 629q3 -20 -16 -30l-122 -66q-14 -8 -12.5 -17.5t17.5 -15.5l139 -53q27 -11 10 -35l-18 -27q-14 -20 -36 -7l-118 71q-14 8 -22.5 2.5t-6.5 -21.5l13 -114q2 -12 -3.5 -20t-17.5 -10l-27 -4q-28 -4 -28 22v125q0 17 -8.5 21.5t-22.5 -6.5l-100 -82q-21 -17 -36 4
l-19 27q-15 23 8 35l124 68q15 8 16.5 17t-13.5 15l-128 52q-24 10 -11 32l16 25q13 20 33 8l111 -67q14 -8 22 -3t6 21l-12 104q-3 25 19 29l26 6q27 6 27 -21v-121q0 -15 8.5 -19.5t20.5 3.5l128 83q12 8 20.5 3.5t10.5 -18.5z" />
    <glyph glyph-name="plus" unicode="+" horiz-adv-x="776" 
d="M407 630q26 0 26 -26v-217q0 -26 27 -26h216q12 0 19.5 -6.5t7.5 -19.5v-39q0 -26 -27 -26h-216q-27 0 -27 -28v-216q0 -26 -26 -26h-37q-27 0 -27 26v216q0 28 -26 28h-216q-28 0 -28 26v39q0 26 28 26h216q26 0 26 26v217q0 26 27 26h37z" />
    <glyph glyph-name="comma" unicode="," horiz-adv-x="331" 
d="M118 97q-4 25 26 25h77q13 0 18.5 -6t7.5 -19l10 -66q3 -16 -10 -32l-104 -133q-12 -17 -30 -17h-16q-14 0 -20.5 8.5t-1.5 20.5l49 120q7 15 4 32z" />
    <glyph glyph-name="hyphen" unicode="-" horiz-adv-x="416" 
d="M80 297q3 22 26 22l214 4q25 0 22 -26l-5 -36q-3 -23 -26 -23l-214 -4q-28 0 -23 26z" />
    <glyph glyph-name="period" unicode="." horiz-adv-x="298" 
d="M79 139q2 23 26 23h96q25 0 24 -25l-6 -114q-2 -23 -26 -23h-97q-24 0 -23 25z" />
    <glyph glyph-name="slash" unicode="/" horiz-adv-x="619" 
d="M471 850q9 20 28 19l24 -1q14 -1 20 -8t1 -20l-359 -916q-8 -20 -28 -20l-62 2q-31 2 -20 29z" />
    <glyph glyph-name="zero" unicode="0" horiz-adv-x="741" 
d="M373 385q-18 0 -29 9.5t-18 23.5t-9.5 31.5t-2.5 33.5q0 37 2 67t8 51.5t17.5 33t31.5 11.5q35 0 46.5 -38.5t11.5 -124.5q0 -16 -2.5 -33.5t-9 -31.5t-18 -23.5t-28.5 -9.5zM376 820q-91 0 -135.5 -76.5t-44.5 -227.5q0 -164 39.5 -240t128.5 -76q181 0 193 316
q6 151 -42 227.5t-139 76.5zM376 913q145 0 218.5 -118.5t73.5 -362.5q0 -220 -78.5 -333t-225.5 -113q-146 0 -221 113t-70 333q6 245 82 363t221 118z" />
    <glyph glyph-name="one" unicode="1" horiz-adv-x="638" 
d="M111 113q0 30 28 30h100q30 0 30 28l12 551q0 32 -32 26l-144 -29q-32 -6 -32 26v60q0 27 26 30l160 20q7 2 22 4l121 25q14 3 21 -6t7 -23l-11 -684q0 -28 29 -28h89q28 0 28 -30v-85q0 -28 -28 -28h-398q-28 0 -28 28v85z" />
    <glyph glyph-name="two" unicode="2" horiz-adv-x="699" 
d="M597 168q29 0 29 -30v-110q0 -28 -29 -28h-489q-28 0 -28 28v118q0 22 16 35q176 144 261.5 233.5t102.5 123.5q11 21 17 48.5t6 48.5q0 68 -37.5 111t-114.5 43q-49 0 -100 -18t-111 -63q-15 -11 -22.5 -4t-11.5 24l-12 54q-3 14 4 20t18 13q63 38 124 55t109 17
q67 0 121 -17t92 -49t58.5 -77.5t20.5 -101.5q0 -57 -25.5 -114.5t-64.5 -113.5t-86.5 -110t-92.5 -105q-11 -13 -1.5 -22t25.5 -9h221z" />
    <glyph glyph-name="three" unicode="3" horiz-adv-x="724" 
d="M536 465q35 -19 57.5 -39.5t35 -44.5t17.5 -52.5t5 -64.5q0 -141 -86.5 -209.5t-249.5 -68.5q-100 0 -206 34q-12 4 -17 12.5t-7 20.5l-12 119q-2 17 8.5 22t25.5 -2q36 -16 87.5 -28t105 -13.5t102 10t77.5 41.5q29 31 38.5 69.5t-6 73t-58.5 58t-119 23.5h-71
q-29 0 -29 28v39q0 29 29 29h76q87 0 132 33.5t45 99.5q0 38 -11.5 64.5t-32 44t-48 26t-60.5 10.5q-50 2 -108 -10.5t-112 -21.5q-15 -2 -21.5 3.5t-11.5 20.5l-13 44q-4 12 -1.5 21.5t15.5 11.5q61 12 126.5 23t128.5 6q52 -5 99.5 -20.5t83.5 -45t57.5 -73t23.5 -104.5
q1 -30 -4.5 -52.5t-18 -41.5t-31.5 -36.5t-44 -35.5q-18 -13 3 -24z" />
    <glyph glyph-name="four" unicode="4" horiz-adv-x="753" 
d="M288 818q-12 -67 -20.5 -113t-14.5 -78.5t-10 -54.5t-7.5 -41t-6.5 -38t-7 -45q-3 -19 -1.5 -26.5t19.5 -7.5l155 -2q15 0 21.5 6.5t8.5 21.5q5 37 8.5 63.5t6 50.5t5 48.5t5.5 58t7 79.5t10 112q1 9 5 11t12 5l66 22q15 5 22.5 -0.5t6.5 -29.5l-16 -422
q-1 -15 7.5 -22.5t22.5 -7.5l59 -1q28 0 28 -28l-1 -64q0 -28 -30 -28l-57 1q-14 0 -22.5 -8t-7.5 -22l10 -229q2 -29 -29 -29h-121q-14 0 -22.5 7.5t-6.5 21.5l22 233q2 14 -6.5 21.5t-22.5 7.5l-295 5q-21 0 -17 19q13 61 22.5 104t16.5 76.5t14 63t14 63t16.5 76
t22.5 102.5q3 15 18 18l74 16q19 4 16 -16z" />
    <glyph glyph-name="five" unicode="5" horiz-adv-x="703" 
d="M100 846q0 29 29 29h385q14 0 19.5 -7.5t9.5 -21.5l11 -41q4 -13 -5 -20.5t-23 -7.5h-302q-31 0 -29 -30l10 -149q2 -30 32 -24q64 13 133.5 6t127 -40.5t95 -97t37.5 -163.5q0 -141 -85.5 -217t-244.5 -76q-48 0 -98 7t-104 22q-28 7 -25 34l12 116q3 35 34 22
q38 -17 81.5 -27t87 -12t83 5.5t70 25.5t49 46.5t18.5 70.5t-18 73.5t-46 53t-62 33t-67.5 15t-62 -1.5t-44.5 -17t-34.5 -15.5t-30.5 -3.5q-16 0 -24 3t-9 20z" />
    <glyph glyph-name="six" unicode="6" horiz-adv-x="743" 
d="M380 479q-78 -2 -123 -55.5t-43 -147.5q1 -58 47.5 -92t124.5 -32t124 36t44 94q-1 46 -13.5 83t-35 62.5t-54.5 39t-71 12.5zM606 778q4 -16 -6.5 -22t-26.5 0q-71 27 -144 25q-210 -3 -237 -273q-2 -19 4.5 -22t19.5 11q32 35 75.5 54t94.5 20q64 1 116.5 -18.5
t89 -56.5t57 -91t21.5 -121q1 -66 -18.5 -120.5t-56 -93.5t-89 -61t-117.5 -23q-151 -2 -231.5 109.5t-84.5 331.5q-2 102 22 184.5t70 141.5t111.5 91.5t146.5 34.5q38 1 72 -6t76 -18q8 -2 15.5 -12t9.5 -20z" />
    <glyph glyph-name="seven" unicode="7" horiz-adv-x="695" 
d="M74 847q-3 14 6.5 21t23.5 7h489q29 0 29 -28v-9q0 -10 -1 -22.5t-4 -22.5l-237 -768q-7 -25 -32 -25h-146q-17 0 -23.5 9t0.5 24l324 707q8 17 1 25.5t-24 8.5h-366q-14 0 -20.5 8t-9.5 20z" />
    <glyph glyph-name="eight" unicode="8" horiz-adv-x="760" 
d="M380 411q-83 0 -130.5 -35t-47.5 -120q0 -18 12 -37.5t35 -35t56 -25.5t75 -10t75 10t56 25.5t35.5 35t12.5 37.5q0 85 -48 120t-131 35zM230 670q0 -63 39 -98t111 -35t111 35t39 98t-39 99.5t-111 36.5t-111 -36.5t-39 -99.5zM233 470q-60 24 -88 71.5t-28 113.5
q0 111 67 173t196 62q130 0 196.5 -62t66.5 -173q0 -66 -28 -113.5t-88 -71.5q-13 -5 -12.5 -9t14.5 -9q72 -25 115 -78.5t43 -129.5q0 -62 -21.5 -110t-61 -81t-96.5 -50t-128 -17t-128 17t-96.5 50t-61 81t-21.5 110q0 76 44 129t116 78q25 9 0 19z" />
    <glyph glyph-name="nine" unicode="9" horiz-adv-x="652" 
d="M312 488q29 0 55 3t45.5 20t31 54t12.5 105q0 29 -10.5 54.5t-29.5 45t-44.5 31t-54.5 11.5t-54.5 -10.5t-45 -28.5t-31 -43t-11.5 -55q-1 -68 9.5 -105t29 -55t44 -22t54.5 -5zM141 116q-2 16 8 27t26 10q64 -2 109 3.5t74.5 18.5t46.5 32.5t27 45t15 57t10 67.5
q2 19 -2 19t-22 -8q-12 -5 -30.5 -8.5t-39 -5t-39.5 -2t-31 -0.5q-43 1 -83.5 9.5t-71 32.5t-49 66t-16.5 110q1 66 22 119.5t54 91.5t75 58.5t86 19.5q149 -3 211 -117.5t58 -333.5q-2 -110 -15 -185.5t-36.5 -125t-57.5 -76t-78.5 -39t-99.5 -14t-119 -0.5q-13 5 -17 12.5
t-6 20.5z" />
    <glyph glyph-name="colon" unicode=":" horiz-adv-x="289" 
d="M74 131q0 25 25 25h92q25 0 25 -25v-106q0 -25 -25 -25h-92q-25 0 -25 25v106zM73 539q0 26 25 26h93q25 0 25 -26v-95q0 -26 -25 -26h-93q-25 0 -25 26v95z" />
    <glyph glyph-name="semicolon" unicode=";" horiz-adv-x="309" 
d="M114 84q0 25 25 25h69q26 0 26 -25v-56q0 -13 -8 -31l-76 -149q-9 -18 -31 -18h-23q-29 0 -22 28l36 139q2 7 3 14.5t1 15.5v57zM111 535q0 25 26 25h73q26 0 26 -25v-99q0 -26 -26 -26h-73q-26 0 -26 26v99z" />
    <glyph glyph-name="less" unicode="&#x3c;" horiz-adv-x="794" 
d="M236 373q-17 -4 -18.5 -13.5t13.5 -17.5l413 -215q18 -9 15 -30l-9 -67q-2 -14 -10.5 -17.5t-19.5 2.5l-532 295q-5 3 -8 11.5t-5 18.5t-2 20t1 15q1 4 4 13.5t7.5 19t9.5 17t11 8.5l589 120q13 2 20.5 -3.5t5.5 -19.5l-6 -38q-3 -20 -23 -25z" />
    <glyph glyph-name="equal" unicode="=" horiz-adv-x="782" 
d="M73 255q0 15 15 15h596q15 0 15 -15v-68q0 -15 -15 -15h-596q-15 0 -15 15v68zM83 439q0 15 15 15h596q15 0 15 -15v-52q0 -15 -15 -15h-596q-15 0 -15 15v52z" />
    <glyph glyph-name="greater" unicode="&#x3e;" horiz-adv-x="785" 
d="M131 532q-18 9 -17 30l3 38q1 14 9.5 18t20.5 -1l547 -250q5 -3 8.5 -11.5t5.5 -18t3 -19t1 -15.5q0 -5 -2.5 -14t-6.5 -19t-9 -18t-10 -9l-585 -168q-13 -4 -20.5 2t-5.5 20l6 67q2 20 22 26l451 117q16 4 17.5 13.5t-15.5 17.5z" />
    <glyph glyph-name="question" unicode="?" horiz-adv-x="601" 
d="M183 130q0 29 30 29h93q30 0 30 -29v-106q0 -29 -30 -29h-93q-30 0 -30 29v106zM334 305q0 -28 -29 -28h-92q-30 0 -30 28v60q0 29 3 53.5t12 46.5t25.5 43.5t43.5 45.5l58 51q45 39 63.5 72t13.5 65q-7 46 -36.5 74.5t-86.5 28.5q-38 0 -81 -14.5t-89 -42.5
q-15 -9 -25.5 -4t-10.5 23v26q0 24 20 35q98 53 206 53q52 0 94.5 -14.5t72.5 -41t46 -64t16 -83.5q0 -44 -26.5 -83.5t-72.5 -88.5q-30 -32 -48.5 -55.5t-29 -44.5t-14 -44t-3.5 -54v-43z" />
    <glyph glyph-name="at" unicode="@" horiz-adv-x="1011" 
d="M365 302q0 -31 3.5 -56.5t17 -43.5t39 -27t70.5 -7t71 11.5t38.5 26.5t16 41t3.5 55q0 63 -35 98.5t-95 35.5t-94.5 -35.5t-34.5 -98.5zM938 321q0 -57 -15.5 -100.5t-41 -75t-57 -52.5t-62.5 -33.5t-59.5 -17.5t-46.5 -5q-8 0 -10 5.5t-2 13.5t0.5 15.5t-3 12t-12.5 3
t-28 -11.5q-31 -17 -61 -24.5t-50 -7.5q-51 0 -86.5 16t-58.5 45t-33.5 69t-10.5 89t14 89.5t39 69.5t59.5 45t76.5 16q84 0 138 -54q18 -18 18 7v22q0 15 15 15h39q15 0 15 -15v-280q0 -14 16 -14q58 0 97 37.5t39 118.5q0 106 -62 183q-51 64 -123 98t-160 34
q-121 0 -217 -63q-78 -51 -120.5 -130.5t-42.5 -175.5q0 -72 31 -132.5t83 -104.5t119 -68.5t139 -24.5q32 0 52.5 0.5t40.5 5.5q8 2 12 1.5t8 -6.5l40 -71q3 -5 2 -11t-7 -9q-20 -9 -61.5 -14t-86.5 -5q-91 0 -170 31.5t-143 93.5q-63 62 -95.5 141t-32.5 173q0 91 33 170
t95 141q64 63 145 95.5t175 32.5q106 0 193.5 -42.5t147.5 -120.5q37 -48 56.5 -104t19.5 -116z" />
    <glyph glyph-name="A" unicode="A" horiz-adv-x="914" 
d="M469 651q-6 19 -12 19q-5 0 -11 -19l-115 -341q-2 -6 -2 -12q0 -21 26 -21h204q26 0 26 21q0 2 -2 12zM394 838q9 22 33 22h60q24 0 33 -22l318 -805q3 -8 3 -13q0 -20 -26 -20h-117q-26 0 -32 25l-21 94q-6 26 -32 26h-312q-28 0 -33 -23l-17 -98q-5 -24 -32 -24h-120
q-27 0 -27 20q0 5 3 13z" />
    <glyph glyph-name="B" unicode="B" horiz-adv-x="767" 
d="M218 407q-29 0 -29 -28v-206q0 -28 29 -28h158q68 0 111.5 23.5t61.5 58t10 73t-44 69.5q-44 38 -139 38h-158zM218 782q-29 0 -29 -29v-218q0 -30 29 -30h132q169 0 169 130q0 66 -42 106.5t-127 40.5h-132zM73 832q0 28 28 28h229q135 0 205.5 -54.5t70.5 -157.5
q0 -143 -91 -177q-25 -10 0 -13q49 -6 83.5 -25.5t55.5 -48.5t30.5 -66t9.5 -77q0 -58 -22 -103t-62.5 -75.5t-98 -46.5t-129.5 -16h-281q-28 0 -28 28v804z" />
    <glyph glyph-name="C" unicode="C" horiz-adv-x="829" 
d="M743 744q-4 -18 -11 -22t-23 6q-54 33 -111.5 45t-121.5 12q-147 0 -215 -90.5t-65 -262.5q1 -71 13.5 -115.5t44 -69.5t85 -34t137.5 -9q32 0 67.5 4.5t69 13t62.5 19.5t47 25q12 8 24 5t10 -22l-12 -158q-1 -11 -5 -18t-14 -16q-23 -21 -51 -34.5t-60.5 -21.5
t-67 -11.5t-70.5 -3.5q-106 0 -182 31t-125 88.5t-72.5 140t-23.5 186.5q0 103 26.5 186t78 140.5t126.5 88.5t172 31q72 0 137.5 -8t122.5 -37q23 -12 19 -34z" />
    <glyph glyph-name="D" unicode="D" horiz-adv-x="869" 
d="M224 765q-28 0 -28 -29v-504q0 -28 28 -28h112q64 0 125 7.5t108.5 31.5t76.5 68.5t29 119.5q0 76 -20 138t-61.5 105.5t-105.5 67t-152 23.5h-112zM73 832q0 28 28 28h211q103 0 191.5 -25.5t153.5 -78.5t102 -133.5t37 -191.5t-37 -192t-102.5 -134.5t-154 -79
t-190.5 -25.5h-211q-28 0 -28 28v804z" />
    <glyph glyph-name="E" unicode="E" horiz-adv-x="700" 
d="M73 832q0 28 29 28h486q29 0 29 -28v-21q0 -29 -29 -29h-370q-28 0 -28 -28v-219q0 -30 28 -30h353q28 0 28 -28v-40q0 -30 -28 -30h-353q-28 0 -28 -28v-145q0 -30 28 -30h381q28 0 28 -28v-148q0 -28 -28 -28h-497q-29 0 -29 28v804z" />
    <glyph glyph-name="F" unicode="F" horiz-adv-x="653" 
d="M96 832q1 28 28 28h426q30 0 30 -28v-34q0 -30 -30 -30h-321q-29 0 -29 -28l2 -202q0 -29 28 -29h278q28 0 28 -29v-63q0 -29 -28 -29h-272q-30 0 -28 -29l21 -330q2 -29 -28 -29h-98q-14 0 -22.5 7.5t-7.5 21.5z" />
    <glyph glyph-name="G" unicode="G" horiz-adv-x="897" 
d="M692 305q0 17 -18 17h-149q-18 0 -18 18v77q0 17 18 17h282q17 0 17 -17v-320q0 -14 -10 -23q-67 -43 -144.5 -65.5t-167.5 -22.5q-101 0 -180.5 30t-135 87.5t-84.5 140.5t-29 188t33 188t91 140.5t136.5 87.5t168.5 30h36t55.5 -3.5t81.5 -11.5t115 -24q6 -2 8.5 -8
t3.5 -13l12 -78q2 -11 -4.5 -11.5t-17.5 2.5q-67 16 -115.5 24.5t-81.5 12.5t-53 4.5t-30 0.5q-68 0 -124.5 -19t-97 -58.5t-63 -102t-20.5 -149.5q1 -92 12.5 -146t43.5 -81.5t91.5 -35t157.5 -7.5q57 0 101.5 8.5t69.5 26.5q9 7 9 21v75z" />
    <glyph glyph-name="H" unicode="H" horiz-adv-x="811" 
d="M83 831q0 29 30 29h63q30 0 30 -29v-395q0 -29 28 -29h342q30 0 30 29v395q0 29 28 29h65q29 0 29 -29l10 -803q0 -28 -28 -28h-76q-28 0 -28 28v189q0 29 -30 29h-342q-28 0 -28 -29v-189q0 -28 -30 -28h-75q-31 0 -28 28z" />
    <glyph glyph-name="I" unicode="I" horiz-adv-x="361" 
d="M74 29q27 103 48 210t29 211.5t-0.5 204t-40.5 189.5q-4 11 6 18.5t24 7.5h97q14 0 22 -8t6 -22q-8 -51 -13.5 -121t-7.5 -149t-1 -160.5t6 -154.5t14 -132t23 -92q6 -15 -3.5 -23t-23.5 -8h-157q-15 0 -23.5 7t-4.5 22z" />
    <glyph glyph-name="J" unicode="J" horiz-adv-x="523" 
d="M328 870q2 29 30 28l65 -5q28 -2 27 -30l-36 -788q-3 -78 -20.5 -132t-50.5 -87.5t-82.5 -49.5t-117.5 -17l-40 4q-26 3 -29 30l-1 130q0 32 32 26l10 -2q10 -2 17 -3.5t18 0.5q34 4 58 15t40 26t24 32t9 35z" />
    <glyph glyph-name="K" unicode="K" horiz-adv-x="814" 
d="M95 832q1 28 29 28h59q30 0 28 -29l-9 -285q-1 -20 9.5 -24.5t25.5 9.5l334 315q9 8 17 11t20 3h76q20 0 24.5 -10.5t-10.5 -24.5l-368 -346q-20 -20 0 -40l401 -404q14 -14 9.5 -24.5t-24.5 -10.5h-202q-21 0 -34 18l-242 343q-12 17 -24 12.5t-10 -25.5l18 -319
q2 -29 -27 -29h-94q-30 0 -28 29z" />
    <glyph glyph-name="L" unicode="L" horiz-adv-x="708" 
d="M84 832q0 28 29 28h59q30 0 30 -28l-7 -598q0 -30 28 -30h384q30 0 28 -29l-8 -148q-2 -27 -29 -27h-497q-28 0 -28 28z" />
    <glyph glyph-name="M" unicode="M" horiz-adv-x="949" 
d="M115 832q1 28 29 28h120q27 0 34 -22l157 -444q6 -17 18.5 -17t19.5 17l169 444q9 22 33 22h109q29 0 30 -28l42 -803q2 -29 -29 -29h-100q-29 0 -29 29l-8 618q0 9 -4 14.5t-9.5 6.5t-10.5 -2.5t-7 -12.5l-127 -504q-3 -13 -12 -18.5t-21 -5.5h-90q-27 0 -33 24
l-127 504q-2 9 -7.5 12.5t-10.5 2.5t-9 -6.5t-4 -14.5l-8 -618q0 -29 -29 -29h-100q-30 0 -28 29z" />
    <glyph glyph-name="N" unicode="N" horiz-adv-x="820" 
d="M106 814q2 29 29 29h94q23 0 34 -21l326 -598q11 -20 22.5 -16.5t12.5 24.5l15 600q0 28 29 28h50q29 0 29 -28v-804q0 -28 -29 -28h-117q-24 0 -34 21l-332 628q-5 10 -11.5 14t-11.5 2.5t-8.5 -8t-2.5 -17.5l41 -611q2 -29 -28 -29h-113q-30 0 -28 29z" />
    <glyph glyph-name="O" unicode="O" horiz-adv-x="932" 
d="M466 784q-63 0 -114 -24.5t-87 -70t-55.5 -111t-19.5 -146.5q0 -67 19.5 -110.5t55.5 -69t87 -35.5t114 -10t114 10t87 35.5t55 69t19 110.5q0 81 -19 146.5t-55 111t-87 70t-114 24.5zM466 878q82 0 153.5 -31.5t124.5 -90t84 -140.5t31 -184t-31 -184t-84 -140.5
t-124.5 -90t-153.5 -31.5t-153.5 31.5t-125 89.5t-84 140.5t-30.5 184.5t30.5 184t84 140.5t125 90t153.5 31.5z" />
    <glyph glyph-name="P" unicode="P" horiz-adv-x="741" 
d="M269 782q-29 0 -30 -28l-9 -221q-2 -29 28 -29h129q43 0 76.5 5t57 20.5t35.5 44t12 75.5q0 57 -46.5 95t-134.5 38h-118zM117 832q1 28 29 28h229q293 0 293 -257q0 -129 -73 -199t-220 -70h-112q-30 0 -30 -28l3 -278q0 -28 -30 -28h-105q-30 0 -28 29z" />
    <glyph glyph-name="Q" unicode="Q" horiz-adv-x="925" 
d="M454 804q-59 0 -107 -24.5t-81.5 -70t-52 -110.5t-18.5 -146q0 -67 16.5 -107t41.5 -61t54.5 -28.5t55.5 -10.5l31 -3q15 -2 21.5 -1t12 8t13.5 22t26 43q15 23 39 10q17 -9 33 -19.5t32 -17.5t32.5 -7t34.5 12q23 15 37.5 30t22.5 33.5t11 41.5t3 55q0 81 -18 146
t-51.5 110.5t-81.5 70t-107 24.5zM842 -94q13 -14 8 -24.5t-23 -10.5h-187q-20 0 -35 17l-93 105q-8 9 -17 12t-21 3q-8 -1 -14 -1h-12q-88 0 -157.5 31.5t-118 89.5t-74 140.5t-25.5 184.5t27 184t77 140.5t120.5 90t156.5 31.5t156.5 -31.5t120.5 -90t77 -140.5t27 -184
q0 -68 -11 -122.5t-28.5 -98t-40 -77.5t-45.5 -61q-17 -20 1 -41z" />
    <glyph glyph-name="R" unicode="R" horiz-adv-x="827" 
d="M242 782q-29 0 -30 -28l-11 -222q-1 -28 29 -28h129q33 0 65.5 7.5t58 22t41 35.5t15.5 47q0 49 -15.5 81t-41 51t-58 26.5t-65.5 7.5h-117zM520 391q30 -20 64.5 -58t64.5 -98l100 -201q8 -15 2.5 -24.5t-22.5 -9.5h-115q-25 0 -34 22l-77 199q-17 45 -36.5 72.5t-43 43
t-51.5 21t-62 5.5h-69q-30 0 -29 -28l24 -307q2 -28 -28 -28h-107q-28 0 -28 28l12 804q0 28 28 28h235q130 0 202.5 -61.5t72.5 -186.5q0 -72 -27 -121.5t-75 -75.5q-13 -7 -13 -11.5t12 -12.5z" />
    <glyph glyph-name="S" unicode="S" horiz-adv-x="773" 
d="M648 758q-4 -17 -17.5 -23t-28.5 1q-56 24 -100 36.5t-92 12.5q-97 0 -148 -37t-51 -106q0 -28 8 -49t26.5 -36.5t50 -27t79.5 -20.5l71 -14q132 -26 193 -87.5t61 -167.5q0 -127 -82.5 -190.5t-246.5 -63.5q-29 0 -62.5 2.5t-69.5 8t-72 14.5t-69 21q-27 9 -25 33
l12 144q3 37 35 20q31 -16 65 -27.5t68.5 -19t67 -11t61.5 -3.5q55 0 89 11t53 27.5t25 34t6 31.5q0 17 -6 33.5t-21.5 31t-43.5 26.5t-72 21l-71 14q-130 25 -189 81t-59 154q0 57 21 102.5t60 77t95.5 48.5t127.5 17q55 0 117 -9t122 -28q13 -2 20 -10.5t4 -20.5z" />
    <glyph glyph-name="T" unicode="T" horiz-adv-x="875" 
d="M73 832q0 28 29 28h670q30 0 30 -28v-40q0 -31 -30 -29l-247 10q-30 2 -28 -30l28 -714q2 -29 -27 -29h-119q-30 0 -28 29l27 714q2 32 -28 30l-247 -10q-30 -2 -30 29v40z" />
    <glyph glyph-name="U" unicode="U" horiz-adv-x="816" 
d="M73 834q0 29 28 29h66q29 0 29 -30l-5 -413q-2 -105 51 -159t167 -54q112 0 165 54t52 159l-4 413q0 30 28 30h65q28 0 28 -29l-5 -508q-3 -340 -329 -340q-165 0 -246.5 85t-83.5 255z" />
    <glyph glyph-name="V" unicode="V" horiz-adv-x="858" 
d="M360 0q-26 0 -33 24l-252 803q-5 15 1.5 24t22.5 9h63q24 0 33 -22l215 -576q7 -18 19 -18t19 18l217 576q9 22 33 22h62q16 0 22 -9t1 -24l-250 -803q-8 -24 -33 -24h-140z" />
    <glyph glyph-name="W" unicode="W" horiz-adv-x="1233" 
d="M74 828q-4 15 3.5 23.5t22.5 8.5h54q23 0 32 -25l193 -548q7 -19 17.5 -21.5t21.5 17.5l127 240q11 20 34 20h56q25 0 34 -20l114 -243q9 -19 19.5 -18.5t18.5 20.5l224 553q10 25 33 25h55q15 0 23 -8.5t3 -23.5l-242 -803q-7 -25 -32 -25h-121q-23 0 -33 22l-102 228
q-18 40 -37 0l-107 -229q-11 -21 -34 -21h-131q-24 0 -32 26z" />
    <glyph glyph-name="X" unicode="X" horiz-adv-x="870" 
d="M125 826q-8 15 -2.5 24.5t22.5 9.5h63q24 0 35 -20l181 -311q9 -15 20 -15t20 15l182 311q11 20 35 20h62q17 0 22.5 -9.5t-2.5 -24.5l-232 -405q-6 -11 -6.5 -20t7.5 -20l258 -346q11 -14 5.5 -24.5t-23.5 -10.5h-135q-23 0 -35 20l-147 242q-9 14 -19.5 14t-19.5 -14
l-149 -242q-12 -20 -35 -20h-134q-19 0 -24 10t7 25l266 347q15 19 3 40z" />
    <glyph glyph-name="Y" unicode="Y" horiz-adv-x="846" 
d="M77 826q-8 15 -2 24.5t23 9.5h65q22 0 33 -20l209 -383q8 -15 19.5 -15t19.5 15l206 383q11 20 33 20h65q17 0 22.5 -9.5t-2.5 -24.5l-260 -514q-5 -10 -7.5 -18t-1.5 -19l24 -247q2 -13 -7 -20.5t-23 -7.5h-146q-14 0 -22.5 7t-6.5 21l23 247q1 11 -1 19t-7 18z" />
    <glyph glyph-name="Z" unicode="Z" horiz-adv-x="871" 
d="M75 832q0 28 28 28h666q29 0 29 -28v-40q0 -19 -14 -36l-451 -520q-12 -14 -7.5 -24.5t23.5 -10.5h403q30 0 30 -29v-144q0 -28 -30 -28h-651q-28 0 -28 28v143q0 21 14 35l486 521q14 15 9.5 25t-24.5 10h-455q-28 0 -28 29v41z" />
    <glyph glyph-name="bracketleft" unicode="[" horiz-adv-x="409" 
d="M91 955q0 18 18 18l209 -4q18 0 18 -18l-1 -47q0 -18 -18 -18l-103 2q-17 0 -17 -18l-14 -894q0 -18 16 -18l103 -2q18 0 18 -17l-2 -135q0 -18 -18 -18l-209 4q-18 0 -18 18z" />
    <glyph glyph-name="backslash" unicode="\" horiz-adv-x="619" 
d="M544 -65q11 -27 -20 -29l-62 -2q-20 0 -28 20l-359 916q-5 13 1 20t20 8l24 1q19 1 28 -19z" />
    <glyph glyph-name="bracketright" unicode="]" horiz-adv-x="409" 
d="M336 -192q0 -18 -18 -18l-209 -4q-18 0 -18 18l-2 135q0 17 18 17l103 2q16 0 16 18l-14 894q0 18 -17 18l-103 -2q-18 0 -18 18l-1 47q0 18 18 18l209 4q18 0 18 -18z" />
    <glyph glyph-name="asciicircum" unicode="^" horiz-adv-x="746" 
d="M400 729q11 0 19 -8l248 -246q8 -7 5.5 -12.5t-12.5 -5.5h-115q-11 0 -18 9l-143 198q-11 14 -22 0l-143 -198q-8 -9 -18 -9h-115q-10 0 -12.5 5.5t5.5 12.5l248 246q8 8 19 8h54z" />
    <glyph glyph-name="underscore" unicode="_" horiz-adv-x="666" 
d="M578 -121q15 0 15 -15v-65q0 -15 -15 -15h-490q-15 0 -15 15v65q0 15 15 15h490z" />
    <glyph glyph-name="grave" unicode="`" horiz-adv-x="363" 
d="M151 839q10 0 18 -9l117 -156q13 -18 -9 -18h-98q-13 0 -18 11l-85 154q-5 8 -1.5 13t11.5 5h65z" />
    <glyph glyph-name="a" unicode="a" horiz-adv-x="608" 
d="M270 123q33 0 56.5 4.5t38.5 19t22.5 40.5t7.5 69q0 23 -24 23h-57q-46 0 -76.5 -4.5t-49.5 -14.5t-28 -25.5t-11 -36.5q-1 -8 -0.5 -14.5t3.5 -14.5q6 -16 17 -25t26 -13.5t34 -6t41 -1.5zM299 560q236 0 236 -248v-288q0 -24 -24 -24h-41q-25 0 -25 24v11
q0 17 -7.5 19.5t-19.5 -9.5q-29 -29 -68.5 -44t-93.5 -15q-42 0 -75.5 12.5t-57.5 35t-37 54.5t-13 71q0 186 246 186h102q24 0 24 9q0 63 -38 99.5t-117 40.5q-39 2 -76 -7t-72 -24q-13 -6 -21 -1.5t-8 18.5v21q0 20 20 28q84 31 166 31z" />
    <glyph glyph-name="b" unicode="b" horiz-adv-x="624" 
d="M338 136q43 1 72 15.5t45.5 37t23 51.5t5.5 59q-3 88 -40 137.5t-106 49.5q-72 0 -112 -53.5t-40 -153.5q5 -38 11 -65.5t21 -45t43 -26t77 -6.5zM115 99q-8 10 -14 47t-10.5 93t-7.5 127.5t-6.5 150t-6.5 159.5t-7 158q-2 26 24 26h50q24 0 24 -25l-7 -318q-2 -36 24 -9
q28 29 64.5 40.5t84.5 11.5q49 0 90.5 -20.5t71 -58.5t46 -91t16.5 -117q0 -65 -16.5 -117.5t-46 -90.5t-71 -58.5t-90.5 -20.5q-54 0 -90 7.5t-60 22t-38 35.5t-24 48z" />
    <glyph glyph-name="c" unicode="c" horiz-adv-x="579" 
d="M506 479q0 -14 -8 -18.5t-21 1.5q-62 27 -125 27q-88 0 -133.5 -58t-45.5 -158q7 -72 47 -109t128 -41q32 -2 64 7t64 20q28 10 28 -18l1 -90q0 -22 -18 -29q-68 -27 -145 -27q-62 0 -111.5 20t-84.5 57.5t-54 90.5t-19 119q0 67 19 120t54.5 90t86.5 57t115 20
q76 0 139 -25q19 -7 19 -28v-28z" />
    <glyph glyph-name="d" unicode="d" horiz-adv-x="644" 
d="M290 495q-69 0 -109 -51.5t-43 -145.5v-15t2 -15q13 -63 46.5 -91t101.5 -28q36 0 63 5t45 20t27 43t9 73q0 100 -35 152.5t-107 52.5zM547 860q24 0 24 -25l-9 -811q0 -24 -24 -24h-41q-25 0 -25 24v14q0 17 -7.5 19t-18.5 -11q-53 -60 -149 -60q-50 0 -91 20.5
t-70.5 58.5t-46 90.5t-16.5 117.5q0 64 16.5 117t46 91t70.5 58.5t91 20.5q48 0 86 -14.5t64 -45.5q11 -13 19 -11.5t8 18.5l7 329q0 24 25 24h41z" />
    <glyph glyph-name="e" unicode="e" horiz-adv-x="630" 
d="M465 359q13 0 18 7.5t3 19.5q-10 57 -50.5 90.5t-100.5 33.5q-33 0 -61 -9.5t-49.5 -26.5t-35 -40t-16.5 -50q-3 -26 23 -26zM557 310q0 -25 -24 -25h-337q-24 0 -24 -25q0 -44 9.5 -70.5t30.5 -41.5t54.5 -20t82.5 -5q45 0 92 2t78 10q12 3 20 -0.5t8 -17.5l1 -73
q0 -21 -18 -28q-21 -11 -40.5 -17.5t-41 -9.5t-46.5 -3.5t-56 0.5q-142 4 -208.5 71.5t-64.5 199.5q1 67 19 123t51.5 96t81.5 62t110 22q41 0 81 -15.5t71.5 -46t50.5 -75.5t19 -104v-9z" />
    <glyph glyph-name="f" unicode="f" horiz-adv-x="568" 
d="M441 838q23 -3 23 -25v-26q0 -26 -26 -23l-55 7q-17 2 -29 -2t-19.5 -22.5t-11 -54.5t-4.5 -97l3 -25q3 -23 26 -23h123q24 0 24 -25v-40q0 -24 -24 -24h-122q-25 0 -24 -25l13 -408q1 -25 -24 -25h-102q-24 0 -23 25l34 408q1 25 -24 25h-101q-25 0 -25 24v40
q0 25 25 25h103q23 0 26 23l2 15q1 81 13.5 133t33.5 81.5t48.5 39.5t59.5 6z" />
    <glyph glyph-name="g" unicode="g" horiz-adv-x="644" 
d="M437 285q0 100 -40 152.5t-113 52.5q-72 0 -107.5 -52.5t-35.5 -152.5q5 -48 13.5 -76t23.5 -42t39 -17.5t60 -3.5t65.5 3.5t50.5 17.5t32.5 42t11.5 76zM557 68q-4 -129 -20.5 -211.5t-48 -129.5t-78 -64.5t-110.5 -17.5q-84 0 -151 22q-20 6 -20 27v108q0 14 8 18.5
t21 -1.5q32 -14 64 -20.5t64 -6.5q72 0 112 51.5t57 166.5q2 14 4 26t1.5 18.5t-5 6.5t-15.5 -10q-25 -23 -61 -37t-82 -14q-50 0 -91.5 20t-71 56.5t-45.5 88.5t-16 115t16 115t45.5 88.5t71 56.5t91.5 20q98 0 151 -62q11 -13 19 -11.5t10 18.5l2 21q1 21 26 21h42
q25 0 24 -25z" />
    <glyph glyph-name="h" unicode="h" horiz-adv-x="641" 
d="M568 25q1 -25 -24 -25h-64q-25 0 -24 25l14 302q2 47 -5.5 78.5t-23 51t-39 27.5t-53.5 8q-37 0 -66.5 -13.5t-50 -38t-31 -58t-9.5 -73.5l9 -284q1 -25 -24 -25h-80q-25 0 -24 25l38 811q1 24 25 24h41q24 0 24 -25l-8 -328q-1 -17 7 -19.5t20 10.5q59 62 149 62
q94 0 140.5 -57.5t49.5 -172.5z" />
    <glyph glyph-name="i" unicode="i" horiz-adv-x="287" 
d="M73 20q9 62 16.5 119.5t12 116.5t5.5 123t-3 141q-1 10 6 16t19 6h42q12 0 19 -6.5t5 -18.5q-6 -57 -9.5 -122.5t-2 -131.5t8.5 -128.5t21 -113.5q4 -13 -3.5 -19.5t-19.5 -6.5h-93q-27 0 -24 25zM99 743q0 15 15 15l66 1q15 0 15 -15l2 -74q0 -15 -15 -15h-70
q-15 0 -15 15z" />
    <glyph glyph-name="j" unicode="j" horiz-adv-x="488" 
d="M290 521q0 24 25 24l77 -2q24 0 23 -24l-43 -591q-4 -53 -27 -103t-58 -89t-78 -63t-87 -24h-25q-24 0 -24 25l2 125q0 24 25 24h14q25 0 54.5 9.5t54.5 34.5t42 68.5t18 110.5zM315 736q1 24 24 24h33q23 0 25 -24l3 -65q1 -25 -24 -25h-40q-25 0 -24 25z" />
    <glyph glyph-name="k" unicode="k" horiz-adv-x="624" 
d="M92 736q0 24 24 24h42q24 0 24 -25l-4 -358q0 -17 9.5 -20.5t20.5 9.5l143 167q11 14 30 14h58q16 0 20 -8.5t-6 -21.5l-168 -208q-13 -18 3 -34l254 -245q12 -11 8 -20.5t-21 -9.5h-124q-18 0 -29 14l-166 204q-11 14 -20.5 10t-8.5 -21l10 -182q1 -25 -23 -25h-70
q-25 0 -25 25z" />
    <glyph glyph-name="l" unicode="l" horiz-adv-x="380" 
d="M93 25q-8 99 -4.5 194t7 182.5t1 166.5t-22.5 146q-4 12 5 18t20 6h52q12 0 16.5 -6.5t6.5 -18.5q7 -54 7.5 -125t-0.5 -147t1.5 -152.5t14.5 -142.5q2 -13 7 -19t17 -6h61q25 0 25 -25v-72q0 -24 -25 -24h-165q-23 0 -24 25z" />
    <glyph glyph-name="m" unicode="m" horiz-adv-x="968" 
d="M537 460q32 51 72 75.5t98 24.5q43 0 75.5 -16.5t55 -46.5t34 -72.5t13.5 -94.5l10 -315q0 -15 -15 -15h-103q-15 0 -14 16l32 326q0 72 -20.5 109t-77.5 37q-35 0 -61.5 -14t-44.5 -38.5t-28 -57t-12 -69.5l-14 -294q0 -15 -16 -15h-93q-15 0 -14 16l42 331q5 40 -1 68
t-21.5 45t-39 24.5t-52.5 7.5q-31 0 -56 -15t-42.5 -40t-27 -58.5t-9.5 -69.5v-294q0 -15 -15 -15h-105q-16 0 -14 15l33 517q1 15 16 15h59q15 0 14 -16l-4 -36q-2 -11 3 -12.5t12 7.5q29 36 66.5 53t80.5 17q55 0 98.5 -25t66.5 -74q8 -18 19 -1z" />
    <glyph glyph-name="n" unicode="n" horiz-adv-x="656" 
d="M583 25q3 -25 -24 -25h-98q-25 0 -24 25l18 307q9 155 -111 155q-84 0 -126.5 -46t-35.5 -127l24 -289q1 -25 -24 -25h-85q-24 0 -24 25l13 503q0 24 25 24h42q24 0 24 -25v-4q0 -16 8.5 -20t20.5 5q29 20 66 36t82 16q94 0 139 -57.5t57 -172.5z" />
    <glyph glyph-name="o" unicode="o" horiz-adv-x="648" 
d="M324 494q-72 0 -114 -54t-42 -151q0 -48 10.5 -77t31 -45t49.5 -21t65 -5t65 5.5t49 21t31 44.5t11 77q0 94 -42 149.5t-114 55.5zM324 560q118 0 184.5 -75.5t66.5 -211.5t-66.5 -211.5t-184.5 -75.5q-59 0 -105.5 19.5t-79 56.5t-49.5 90t-17 121q0 67 17 120.5
t49.5 90.5t79 56.5t105.5 19.5z" />
    <glyph glyph-name="p" unicode="p" horiz-adv-x="671" 
d="M531 277q0 100 -41 155.5t-113 55.5t-112 -55.5t-40 -155.5q0 -50 11 -80t31.5 -46.5t49.5 -22t65 -5.5t63.5 5.5t46.5 22t29 46.5t10 80zM186 -184q-2 -24 -25 -24h-64q-26 0 -23 26l39 305l1 391q0 25 25 25h38q28 0 22 -27v-3q-8 -35 18 -8q53 59 147 59
q49 0 92 -20.5t74.5 -58.5t49.5 -91t18 -117q0 -77 -17 -131.5t-48 -89t-74 -50.5t-95 -16q-10 0 -28 0.5t-38 4t-40 12t-34 23.5q-11 13 -18 11t-8 -19z" />
    <glyph glyph-name="q" unicode="q" horiz-adv-x="721" 
d="M142 286q0 -50 8.5 -79.5t26 -45.5t44 -20.5t62.5 -4.5t64.5 4.5t49 20.5t31.5 45.5t11 79.5q0 100 -41 155t-113 55t-107.5 -55t-35.5 -155zM467 36q2 17 -4.5 19.5t-17.5 -10.5q-56 -59 -149 -59q-50 0 -91 20.5t-70 58.5t-45.5 90.5t-16.5 117.5q0 64 16.5 117
t45.5 91t70 58.5t91 20.5q97 0 153 -63q24 -27 30 6l4 20q4 22 26 22h39q25 0 24 -25l-36 -687q-1 -10 -1 -20.5t14 -10.5l89 2q11 0 9.5 -13t-10.5 -21l-70 -65q-14 -12 -30 -12l-84 -1q-26 0 -23 26z" />
    <glyph glyph-name="r" unicode="r" horiz-adv-x="474" 
d="M401 482q0 -14 -6.5 -17.5t-20.5 -1.5q-9 2 -18.5 2h-22.5q-38 0 -64.5 -7t-43.5 -24t-25 -46t-8 -73l26 -290q3 -25 -24 -25h-98q-27 0 -22 27q13 74 20.5 131t11.5 111t4 112.5t-2 135.5q0 25 24 25h34q24 0 24 -20q0 -15 8.5 -19t20.5 4q23 15 59.5 29t81.5 14h9.5
t10.5 -1q20 -3 20 -26z" />
    <glyph glyph-name="s" unicode="s" horiz-adv-x="564" 
d="M462 486q0 -14 -7.5 -18.5t-20.5 0.5q-63 26 -136 26q-69 0 -104 -22.5t-35 -64.5q0 -18 6 -31.5t20.5 -24t38.5 -19t60 -16.5l31 -7q48 -11 81.5 -24.5t54.5 -32.5t30.5 -44t9.5 -59q0 -78 -60 -120.5t-166 -42.5q-81 0 -171 28q-21 6 -21 27v98q0 14 8 19t21 -1
q87 -38 165 -38q44 0 65 16t22 36.5t-17 40t-52 27.5l-50 11q-84 19 -121 52t-37 97q0 78 54 119.5t156 41.5q90 0 155 -22q20 -8 20 -28v-24z" />
    <glyph glyph-name="t" unicode="t" horiz-adv-x="447" 
d="M214 683q25 0 24 -25l-3 -86q-1 -25 24 -25h77q24 0 24 -25v-21q0 -24 -24 -24h-78q-25 0 -25 -24l-4 -214q-1 -45 -0.5 -68.5t8.5 -34t27.5 -11.5t57.5 -1h28q24 0 24 -25v-75q0 -24 -24 -24h-28q-66 0 -106 4t-61 22t-27 54t-3 100l13 273q1 24 -24 24h-20
q-21 0 -21 24v21q0 25 24 25h18q23 0 25 24l3 88q1 24 25 24h46z" />
    <glyph glyph-name="u" unicode="u" horiz-adv-x="596" 
d="M73 522q0 25 24 25h37q25 0 24 -25l-9 -234q-2 -58 5 -91t22.5 -49.5t39 -20.5t53.5 -4q37 0 66 8t49.5 28t31 53t10.5 84l-1 227q0 24 25 24l48 1q24 0 24 -24l1 -498q0 -25 -25 -25l-37 -1q-23 0 -23 25v13q0 17 -7 19.5t-19 -10.5q-58 -61 -147 -61q-192 0 -192 230
v306z" />
    <glyph glyph-name="v" unicode="v" horiz-adv-x="683" 
d="M75 519q-5 13 0.5 20.5t19.5 7.5h45q19 0 28 -19l157 -343q7 -15 16 -15t16 15l157 343q9 19 29 19h45q14 0 19 -7.5t0 -20.5l-193 -499q-8 -20 -28 -20h-90q-20 0 -28 20z" />
    <glyph glyph-name="w" unicode="w" horiz-adv-x="862" 
d="M74 520q-8 27 21 27h40q19 0 27 -21l102 -320q5 -16 14.5 -17t17.5 14l68 127q9 17 29 17h72q20 0 29 -17l73 -127q8 -14 17.5 -13.5t14.5 16.5l101 320q6 21 27 21h40q28 0 21 -27l-137 -499q-6 -21 -27 -21h-84q-21 0 -28 19l-65 155q-7 16 -16 16t-16 -16l-69 -156
q-8 -18 -28 -18h-79q-21 0 -27 21z" />
    <glyph glyph-name="x" unicode="x" horiz-adv-x="680" 
d="M559 547q15 0 20 -9t-3 -21l-162 -243q-12 -17 2 -34l184 -210q11 -12 6.5 -21t-20.5 -9h-97q-18 0 -30 16l-97 129q-16 22 -34 1l-106 -131q-12 -15 -30 -15h-97q-16 0 -21 9t6 21l189 215q14 16 2 34l-158 238q-8 13 -3.5 21.5t19.5 8.5h41q18 0 30 -16l123 -183
q8 -11 17 -11.5t17 10.5l136 185q10 15 29 15h37z" />
    <glyph glyph-name="y" unicode="y" horiz-adv-x="686" 
d="M392 -49q-29 -75 -58.5 -121.5t-59 -72.5t-60 -35t-60.5 -9h-57q-24 0 -24 24v75q0 24 24 24h38q26 0 53 18t51 46t43.5 62t30.5 67q2 7 3.5 15.5t-3.5 17.5l-213 456q-6 13 -0.5 21t19.5 8h44q18 0 29 -17l165 -271q8 -13 17.5 -12.5t16.5 14.5l125 268q9 18 28 18h47
q14 0 19.5 -7.5t0.5 -20.5z" />
    <glyph glyph-name="z" unicode="z" horiz-adv-x="609" 
d="M105 522q0 25 24 25h373q24 0 24 -25v-40q0 -17 -11 -30l-280 -302q-11 -12 -7 -20.5t21 -8.5h263q24 0 24 -25v-72q0 -24 -24 -24h-415q-24 0 -24 24v89q0 19 12 30l315 307q12 11 8.5 20.5t-20.5 9.5h-259q-24 0 -24 24v18z" />
    <glyph glyph-name="braceleft" unicode="{" horiz-adv-x="528" 
d="M402 27q16 3 16 -14l4 -89q0 -14 -14 -16l-15 -1q-61 -4 -102.5 4.5t-67 31.5t-37 61t-11.5 92q0 75 -2 123.5t-9.5 77t-22 39.5t-38.5 11h-15q-15 0 -15 15l2 80q0 15 15 14h15q27 0 43.5 10t26 45t14 103t7.5 184q1 54 14.5 88t41.5 52.5t71 25.5t104 7l15 -2
q15 -2 12 -17l-7 -39q-3 -15 -17 -13l-18 4q-38 -1 -60 -5.5t-34 -16.5t-16 -33.5t-5 -55.5q-3 -130 -5.5 -204.5t-11 -113.5t-25.5 -53t-50 -21q-14 -5 0 -9q27 -10 41 -22.5t20 -39.5t7 -75.5t2 -130.5q0 -25 4.5 -43t16 -30t33 -18t56.5 -7z" />
    <glyph glyph-name="bar" unicode="|" horiz-adv-x="293" 
d="M196 346l-15 -567q0 -15 -15 -15h-79q-16 0 -14 15l32 568l27 582q0 15 16 15h58q14 0 14 -15z" />
    <glyph glyph-name="braceright" unicode="}" horiz-adv-x="528" 
d="M143 26q34 1 55.5 7t33.5 18t16.5 30t4.5 43q1 82 2 130.5t7 75.5t20 39.5t41 22.5q13 4 0 9q-33 7 -50 21t-25.5 53t-11 113.5t-5.5 204.5q-1 34 -5 55.5t-16 33.5t-34.5 16.5t-59.5 5.5l-18 -4q-14 -2 -17 13l-7 39q-3 15 12 17l15 2q61 0 104 -7t71 -25.5t41.5 -52.5
t14.5 -88q3 -116 7.5 -184t14 -103t26 -45t43.5 -10h15q15 1 15 -14l2 -80q0 -15 -15 -15h-15q-24 0 -38.5 -11t-22 -39.5t-9.5 -77t-2 -123.5q0 -54 -11.5 -92t-37 -61t-67 -31.5t-102.5 -4.5l-15 1q-14 2 -14 16l4 89q0 17 16 14z" />
    <glyph glyph-name="asciitilde" unicode="~" horiz-adv-x="872" 
d="M799 308q0 -11 -9 -18q-26 -20 -53 -39t-55 -35t-57.5 -27t-61.5 -13q-41 -3 -80 10.5t-74.5 29t-66.5 28t-56 8.5q-32 -5 -51.5 -14.5t-38 -24.5t-41.5 -37.5t-63 -53.5q-8 -6 -13.5 -4t-5.5 12v198q0 11 9 19q30 22 53.5 37t48.5 25t54.5 16.5t70.5 11.5
q33 4 68.5 -6.5t70 -25t67 -26t59.5 -8.5q22 2 42.5 8.5t44.5 20t52.5 36t66.5 57.5q8 8 13.5 5.5t5.5 -12.5v-178z" />
    <glyph glyph-name="uni00A0" unicode="&#xa0;" horiz-adv-x="929" 
 />
    <glyph glyph-name="exclamdown" unicode="&#xa1;" horiz-adv-x="295" 
d="M91 311l-18 379q-1 25 23 25h103q24 0 23 -25l-23 -379l-4 -326q0 -12 -6.5 -19t-18.5 -5l-46 10q-11 2 -18 7t-7 17zM76 960q-3 30 28 30h88q31 0 28 -30l-8 -92q-2 -14 -8.5 -21t-21.5 -7h-69q-29 0 -30 28z" />
    <glyph glyph-name="cent" unicode="&#xa2;" horiz-adv-x="513" 
d="M158 291q5 -51 29 -80.5t75 -40.5l6 112l9 189q-60 -10 -89.5 -57.5t-29.5 -122.5zM331 166q21 2 42 8t41 13q24 7 24 -15l1 -76q0 -19 -16 -25q-42 -17 -95 -22l-5 -175q0 -10 -11 -10h-57q-10 0 -10 10l10 178q-85 14 -133.5 76.5t-48.5 162.5q0 108 55 171t152 71
l8 167q0 11 11 11h42q10 0 10 -11l-7 -168q20 -2 40 -6.5t39 -12.5q17 -8 17 -24v-23q0 -12 -7 -16t-18 1q-36 17 -73 21l-8 -191z" />
    <glyph glyph-name="sterling" unicode="&#xa3;" horiz-adv-x="646" 
d="M558 109q15 0 15 -15v-75q0 -15 -15 -15h-470q-15 0 -15 15v75q0 15 15 15h37q19 0 36.5 10.5t28.5 48.5l29 106q4 16 -14 16l-89 -3q-16 0 -15 16l2 43q0 14 14 14l95 4q12 0 17 14l6 107q2 31 18 63.5t42.5 59t60.5 43t71 16.5q43 0 85 -14q12 -3 12 -17v-36
q0 -20 -18 -9q-28 16 -61 16q-24 0 -44 -5t-36 -18.5t-26.5 -38t-15.5 -64.5l-1 -97q-3 -17 13 -17l122 4q15 0 15 -15l-1 -44q0 -16 -16 -16l-126 -3q-14 0 -17 -15l-8 -105q-2 -33 20.5 -48.5t55.5 -15.5h178z" />
    <glyph glyph-name="currency" unicode="&#xa4;" horiz-adv-x="639" 
d="M452 314q0 27 -10 51t-28 41.5t-42 27.5t-52 10q-27 0 -51 -10t-42 -27.5t-28.5 -41.5t-10.5 -51q0 -29 10 -49.5t28 -34.5t42 -20.5t52 -6.5q27 0 51 7t42 21t28.5 34.5t10.5 48.5zM497 555q10 12 21 1l35 -35q10 -10 0 -21l-52 -60q-7 -10 -2 -21q28 -51 29.5 -113.5
t-30.5 -116.5q-7 -12 2 -21l61 -60q11 -11 0 -22l-33 -33q-12 -12 -22 -1l-61 61q-11 10 -21 3q-51 -32 -103.5 -31t-106.5 30q-10 6 -21 -2l-60 -53q-11 -11 -21 0l-34 35q-11 11 1 21l59 52q10 8 3 21q-29 54 -30 115t31 113q6 11 -2 21l-52 60q-10 11 0 21l35 35
q12 12 21 -1l52 -58q9 -11 21 -3q49 29 102.5 29t104.5 -29q13 -6 21 3z" />
    <glyph glyph-name="yen" unicode="&#xa5;" horiz-adv-x="846" 
d="M748 860q17 0 22.5 -9.5t-2.5 -24.5l-197 -390h164q15 0 15 -15v-52q0 -15 -15 -15h-206l-21 -42q-5 -10 -7.5 -18t-1.5 -19l2 -23h224q15 0 15 -15v-68q0 -15 -15 -15h-214l12 -126q2 -13 -7 -20.5t-23 -7.5h-146q-14 0 -22.5 7t-6.5 21l12 126h-201q-15 0 -15 15v68
q0 15 15 15h210l2 23q1 11 -1 19t-7 18l-21 42h-173q-15 0 -15 15v52q0 15 15 15h132l-194 390q-8 15 -2 24.5t23 9.5h65q22 0 33 -20l209 -383q8 -15 19.5 -15t19.5 15l206 383q11 20 33 20h65z" />
    <glyph glyph-name="brokenbar" unicode="&#xa6;" horiz-adv-x="273" 
d="M98 257h83l-15 -493h-93zM200 764l-19 -455h-83l19 455h83z" />
    <glyph glyph-name="section" unicode="&#xa7;" horiz-adv-x="610" 
d="M414 181q6 -1 9.5 0.5t5.5 8.5q12 61 13.5 99.5t-16.5 64t-61 42.5t-120 35q-6 2 -8 0l-7 -7q-42 -38 -58 -69.5t-11 -57.5t27.5 -46t57 -34t78 -23t90.5 -13zM500 127q-3 -9 3 -17q27 -42 31 -102q4 -61 -12.5 -104t-47.5 -71.5t-73 -42.5t-89.5 -17.5t-98 3.5t-96.5 21
q-23 8 -23 26l1 122q0 31 29 19q49 -20 100.5 -31.5t93.5 -8t68 25t24 66.5q-2 32 -12 51t-26 30t-37 15.5t-44 7.5q-64 8 -108.5 29.5t-70.5 52t-34.5 68t0.5 77.5q8 38 19 60t21.5 35.5t20 22.5t15.5 21q6 8 0 17q-13 19 -28.5 38t-17.5 47q-6 84 26 133.5t87 72t125 21.5
t141 -18q7 0 15 -3q8 -2 12.5 -8.5t2.5 -14.5l-7 -45q-2 -14 -13 -20t-25 -1q-55 19 -105 27t-87 -1t-57.5 -39.5t-15.5 -88.5q2 -24 6.5 -40.5t18 -27.5t37.5 -19.5t65 -15.5q50 -9 91.5 -28t69 -49.5t38 -73.5t-1.5 -100q-8 -37 -16 -67t-15 -55z" />
    <glyph glyph-name="dieresis" unicode="&#xa8;" horiz-adv-x="477" 
d="M298 750q0 15 15 15h76q15 0 15 -15v-76q0 -15 -15 -15h-76q-15 0 -15 15v76zM73 750q0 15 15 15h77q15 0 15 -15v-76q0 -15 -15 -15h-77q-15 0 -15 15v76z" />
    <glyph glyph-name="copyright" unicode="&#xa9;" horiz-adv-x="870" 
d="M568 525q0 -23 -21 -12q-41 19 -89 19q-63 0 -96 -41.5t-33 -113.5q5 -51 34 -78t92 -30q23 -1 46 5.5t46 14.5q20 8 20 -13l1 -65q0 -15 -13 -21q-47 -19 -104 -19q-91 0 -142.5 55t-51.5 151q0 97 52 151.5t146 54.5q52 0 100 -18q13 -4 13 -20v-20zM435 675
q-65 0 -122 -24.5t-99.5 -67.5t-67 -100t-24.5 -121q0 -65 24.5 -116t66.5 -86t99 -53t123 -18t123 17t99 51.5t66 85.5t24 119q0 64 -24 121t-66 99.5t-99 67.5t-123 25zM435 725q75 0 141 -28.5t115 -77.5t77.5 -115t28.5 -142q0 -110 -28.5 -180t-77.5 -110.5t-115 -56
t-141 -15.5t-141 15.5t-115 56t-77.5 110.5t-28.5 180q0 76 28.5 142t77.5 115t115 77.5t141 28.5z" />
    <glyph glyph-name="ordfeminine" unicode="&#xaa;" horiz-adv-x="646" 
d="M558 273q15 0 15 -15v-40q0 -15 -15 -15h-470q-15 0 -15 15v40q0 15 15 15h470zM297 387q20 0 34.5 3t24 11.5t14 24.5t4.5 42q0 14 -15 14h-35q-56 0 -77 -11.5t-23 -37.5q-1 -5 -0.5 -9t2.5 -9q7 -20 25.5 -24t45.5 -4zM389 522q15 0 15 6q0 38 -23 60.5t-71 24.5
q-24 1 -47 -4.5t-44 -14.5q-17 -9 -17 10v13q0 12 12 17q50 19 101 19q144 0 144 -151v-175q0 -15 -15 -15h-25q-15 0 -15 15v6q0 22 -16 6q-36 -36 -99 -36q-51 0 -81.5 29t-30.5 77q0 113 150 113h62z" />
    <glyph glyph-name="guillemotleft" unicode="&#xab;" horiz-adv-x="613" 
d="M512 100q-11 -11 -22 0l-194 192q-2 6 -2 8q-2 7 3 12l184 185q11 11 22 0l18 -18q11 -11 0 -22l-138 -138q-11 -11 0 -21l152 -153q11 -11 0 -22zM291 100q-11 -11 -22 0l-194 192q-2 6 -2 8q-2 7 3 12l184 185q11 11 22 0l18 -18q11 -11 0 -22l-138 -138q-11 -11 0 -21
l152 -153q11 -11 0 -22z" />
    <glyph glyph-name="logicalnot" unicode="&#xac;" horiz-adv-x="785" 
d="M697 428q15 0 15 -15v-298q0 -15 -15 -15h-106q-15 0 -15 15v165q0 15 -15 15h-473q-15 0 -15 15v103q0 15 15 15h609z" />
    <glyph glyph-name="softhyphen" unicode="&#xad;" horiz-adv-x="416" 
d="M80 297q3 22 26 22l214 4q25 0 22 -26l-5 -36q-3 -23 -26 -23l-214 -4q-28 0 -23 26z" />
    <glyph glyph-name="registered" unicode="&#xae;" horiz-adv-x="870" 
d="M385 539q-13 0 -13 -13l-5 -97q0 -12 13 -12h56q15 0 29 3.5t25 10t18 15.5t7 20q0 21 -7 35.5t-18 22.5t-25 11.5t-29 3.5h-51zM506 368q14 -8 29 -25t28 -43l43 -88q7 -15 -8 -15h-51q-11 0 -15 10l-33 87q-19 37 -36.5 49.5t-48.5 12.5h-30q-13 0 -12 -13l10 -134
q1 -12 -12 -12h-47q-12 0 -12 12l5 352q0 12 12 12h103q57 0 88.5 -27t31.5 -82q0 -60 -44 -86q-11 -5 -1 -10zM435 675q-65 0 -122 -24.5t-99.5 -67.5t-67 -100t-24.5 -121q0 -65 24.5 -116t66.5 -86t99 -53t123 -18t123 17t99 51.5t66 85.5t24 119q0 64 -24 121t-66 99.5
t-99 67.5t-123 25zM435 725q75 0 141 -28.5t115 -77.5t77.5 -115t28.5 -142q0 -110 -28.5 -180t-77.5 -110.5t-115 -56t-141 -15.5t-141 15.5t-115 56t-77.5 110.5t-28.5 180q0 76 28.5 142t77.5 115t115 77.5t141 28.5z" />
    <glyph glyph-name="macron" unicode="&#xaf;" horiz-adv-x="465" 
d="M73 743q0 15 15 15h289q15 0 15 -15v-71q0 -15 -15 -15h-289q-15 0 -15 15v71z" />
    <glyph glyph-name="degree" unicode="&#xb0;" horiz-adv-x="456" 
d="M228 704q-39 0 -66 -24.5t-27 -60.5q0 -35 27 -59.5t66 -24.5t66 24.5t27 59.5q0 18 -7.5 33.5t-20 27t-29.5 18t-36 6.5zM228 742q32 0 60 -12t50 -34q45 -47 45 -110q0 -32 -12 -60t-33 -49t-49.5 -33t-61.5 -12t-61 11.5t-49 32.5t-32.5 49t-11.5 61t12 61.5t33 49.5
t49.5 33t60.5 12z" />
    <glyph glyph-name="plusminus" unicode="&#xb1;" horiz-adv-x="779" 
d="M76 81q0 15 15 15h596q15 0 15 -15v-62q0 -15 -15 -15h-596q-15 0 -15 15v62zM410 792q26 0 26 -26v-217q0 -26 27 -26h216q12 0 19.5 -6.5t7.5 -19.5v-39q0 -26 -27 -26h-216q-27 0 -27 -28v-216q0 -26 -26 -26h-37q-27 0 -27 26v216q0 28 -26 28h-216q-28 0 -28 26v39
q0 26 28 26h216q26 0 26 26v217q0 26 27 26h37z" />
    <glyph glyph-name="twosuperior" unicode="&#xb2;" horiz-adv-x="388" 
d="M302 414q13 0 13 -13v-48q0 -12 -13 -12h-214q-12 0 -12 12v52q0 8 7 15q78 63 114.5 102t44.5 54q5 9 7.5 21t2.5 21q0 30 -16 49t-50 19q-22 0 -44.5 -8t-48.5 -28q-6 -5 -9.5 -1.5t-4.5 10.5l-6 24q-1 6 2 8.5t8 5.5q28 17 54.5 24.5t47.5 7.5q60 0 93.5 -29t33.5 -78
q0 -25 -11.5 -50t-28.5 -50t-37.5 -48.5t-39.5 -45.5q-5 -5 -1 -9.5t11 -4.5h97z" />
    <glyph glyph-name="threesuperior" unicode="&#xb3;" horiz-adv-x="398" 
d="M275 546q31 -17 40.5 -36.5t9.5 -51.5q0 -60 -37 -90.5t-109 -30.5q-42 0 -90 15q-9 3 -11 14l-5 52q-1 16 15 9q15 -7 37.5 -12.5t46.5 -6t45 4.5t33 18q13 14 17 31t-3 32t-25.5 25t-51.5 10h-31q-13 0 -13 12v17q0 13 13 13h33q77 0 77 58q0 32 -18.5 47t-47.5 17
q-22 2 -47.5 -4t-48.5 -10q-7 -2 -9.5 0.5t-4.5 9.5l-6 19q-5 12 6 15q26 5 55 9.5t56 2.5q24 -2 44.5 -8.5t36 -19.5t25 -32t10.5 -46q1 -26 -9.5 -41.5t-33.5 -30.5q-7 -7 1 -11z" />
    <glyph glyph-name="acute" unicode="&#xb4;" horiz-adv-x="363" 
d="M277 839q8 0 11.5 -5t-1.5 -13l-85 -154q-6 -11 -18 -11h-98q-22 0 -9 18l117 156q7 9 18 9h65z" />
    <glyph glyph-name="mu" unicode="&#xb5;" horiz-adv-x="754" 
d="M677 -43q14 -14 -5 -21q-55 -21 -97.5 -19.5t-70.5 19t-41 48t-9 68.5q-5 20 -25 -2q-58 -61 -147 -61q-61 0 -105 26l4 -299q0 -15 -15 -15l-79 -3q-14 0 -14 14l12 340l5 334v139q0 25 24 25h37q18 0 23 -14q5 -3 6 -13l-3 -338q6 -20 16 -32t23.5 -18t31 -7.5
t38.5 -1.5q37 0 66 8t49.5 28t31 53t10.5 84l-1 227q0 24 25 24l48 1q24 0 24 -24l1 -489q6 -14 13 -27t17.5 -21t25.5 -9.5t35 7.5q12 6 21 -4z" />
    <glyph glyph-name="paragraph" unicode="&#xb6;" horiz-adv-x="742" 
d="M442 709q-15 0 -15 -15v-695q0 -15 -15 -15h-121q-15 0 -14 16l32 319q1 14 -13 16q-47 4 -87.5 24.5t-70.5 53t-47.5 74.5t-17.5 90q0 49 19 93.5t51.5 77.5t76.5 52.5t94 19.5h302q12 0 14 -2v-2l39 -817q0 -15 -14 -15h-106q-15 0 -15 15l-20 697q0 15 -15 15z" />
    <glyph glyph-name="periodcentered" unicode="&#xb7;" horiz-adv-x="249" 
d="M176 285h-103v124h103v-124z" />
    <glyph glyph-name="cedilla" unicode="&#xb8;" horiz-adv-x="354" 
d="M219 0q12 0 18 -9q39 -47 43.5 -90t-18.5 -70t-70 -34t-110 18q-19 7 -5 21l25 27q9 10 21 4q30 -13 53.5 -12.5t34 14.5t5.5 42t-32 70q-5 8 -2.5 13.5t11.5 5.5h26z" />
    <glyph glyph-name="onesuperior" unicode="&#xb9;" horiz-adv-x="361" 
d="M90 390q0 13 12 13h43q14 0 14 13l5 241q0 14 -14 11l-63 -13q-14 -3 -14 12v26q0 11 11 13l70 9q2 1 10 1l53 11q6 2 9 -2t3 -10l-5 -299q0 -13 13 -13h39q12 0 12 -13v-37q0 -12 -12 -12h-174q-12 0 -12 12v37z" />
    <glyph glyph-name="ordmasculine" unicode="&#xba;" horiz-adv-x="646" 
d="M73 304q0 15 15 15h470q15 0 15 -15v-40q0 -15 -15 -15h-470q-15 0 -15 15v40zM323 685q-45 0 -70 -33.5t-25 -91.5q0 -29 6.5 -47t19 -27.5t30 -12.5t39.5 -3t39.5 3t30 13t19 27.5t6.5 46.5q0 57 -25 91t-70 34zM323 725q72 0 112.5 -45.5t40.5 -129.5
q0 -82 -40.5 -128.5t-112.5 -46.5t-112.5 46.5t-40.5 128.5q0 84 40.5 129.5t112.5 45.5z" />
    <glyph glyph-name="guillemotright" unicode="&#xbb;" horiz-adv-x="613" 
d="M300 123q-11 11 0 22l152 153q10 10 0 21l-138 138q-11 11 0 22l18 18q11 11 22 0l184 -185q2 -2 2.5 -5.5t0.5 -6.5l-2 -8l-194 -192q-11 -11 -22 0zM79 123q-11 11 0 22l152 153q10 10 0 21l-138 138q-11 11 0 22l18 18q11 11 22 0l184 -185q2 -2 2.5 -5.5t0.5 -6.5
l-2 -8l-194 -192q-11 -11 -22 0z" />
    <glyph glyph-name="onequarter" unicode="&#xbc;" horiz-adv-x="1461" 
d="M1159 224q-2 -9 -1 -13t10 -4l78 -1q13 0 15 14q4 28 6 45t3.5 36.5t4 47t7.5 77.5q0 5 2 6t6 2l33 11q8 3 12 0t3 -15l-8 -211q0 -15 15 -15h29q14 0 14 -14v-32q0 -14 -15 -14h-29q-15 0 -15 -15l5 -114q0 -15 -14 -15h-61q-16 0 -14 15l11 116q1 15 -15 15l-147 2
q-12 0 -9 10l53 242q1 7 9 9l37 8q10 4 8 -8zM93 402q0 15 14 15h50q15 0 15 14l6 275q0 16 -16 13l-72 -14q-16 -3 -16 13v30q0 12 13 15l80 10l11 2l60 12q14 3 14 -14l-5 -342q0 -14 14 -14h45q14 0 14 -15v-43q0 -14 -14 -14h-199q-14 0 -14 14v43zM864 850q9 20 28 19
l24 -1q14 -1 20 -8t1 -20l-359 -916q-8 -20 -28 -20l-62 2q-31 2 -20 29z" />
    <glyph glyph-name="onehalf" unicode="&#xbd;" horiz-adv-x="1434" 
d="M1347 84q14 0 14 -15v-55q0 -14 -14 -14h-245q-14 0 -14 14v59q0 10 8 18q89 72 131.5 116.5t50.5 61.5q6 11 9 24.5t3 24.5q0 34 -19 55.5t-57 21.5q-25 0 -51 -9.5t-55 -31.5q-13 -8 -17 10l-6 27q-2 7 2 10.5t9 6.5q32 20 62.5 28t54.5 8q67 0 106.5 -33t39.5 -90
q0 -29 -13 -57.5t-32.5 -56.5t-43.5 -55t-46 -52q-5 -6 -0.5 -11t12.5 -5h111zM93 402q0 15 14 15h50q15 0 15 14l6 275q0 16 -16 13l-72 -14q-16 -3 -16 13v30q0 12 13 15l80 10l11 2l60 12q14 3 14 -14l-5 -342q0 -14 14 -14h45q14 0 14 -15v-43q0 -14 -14 -14h-199
q-14 0 -14 14v43zM864 850q9 20 28 19l24 -1q14 -1 20 -8t1 -20l-359 -916q-8 -20 -28 -20l-62 2q-31 2 -20 29z" />
    <glyph glyph-name="threequarters" unicode="&#xbe;" horiz-adv-x="1504" 
d="M1202 224q-2 -9 -1 -13t10 -4l78 -1q13 0 15 14q4 28 6 45t3.5 36.5t4 47t7.5 77.5q0 5 2 6t6 2l33 11q8 3 12 0t3 -15l-8 -211q0 -15 15 -15h29q14 0 14 -14v-32q0 -14 -15 -14h-29q-15 0 -15 -15l5 -114q0 -15 -14 -15h-61q-16 0 -14 15l11 116q1 15 -15 15l-147 2
q-12 0 -9 10l53 242q1 7 9 9l37 8q10 4 8 -8zM305 582q35 -20 46.5 -42.5t11.5 -58.5q0 -69 -43.5 -104t-124.5 -35q-46 0 -103 17q-12 4 -12 17l-6 59q-2 18 17 10q18 -8 44 -14t52.5 -7t50.5 5t39 21q15 16 20 35.5t-3.5 36.5t-30.5 28.5t-59 11.5h-35q-15 0 -15 14v20
q0 14 15 14h38q88 0 88 67q0 37 -21.5 53.5t-54.5 18.5q-25 2 -54 -5t-56 -11q-8 -2 -11 1t-5 11l-7 22q-5 14 7 17q31 6 63.5 11t64.5 3q26 -2 49 -10t41 -22.5t29 -36.5t13 -52q2 -29 -10.5 -47.5t-38.5 -35.5q-8 -8 1 -12zM907 850q9 20 28 19l24 -1q14 -1 20 -8t1 -20
l-359 -916q-8 -20 -28 -20l-62 2q-31 2 -20 29z" />
    <glyph glyph-name="questiondown" unicode="&#xbf;" horiz-adv-x="601" 
d="M334 568q0 -31 3.5 -54t14 -44t29 -44.5t48.5 -55.5q23 -25 41.5 -46.5t31 -42t19.5 -41t7 -42.5q0 -46 -16 -83.5t-46 -64t-72.5 -41t-94.5 -14.5q-108 0 -206 53q-20 11 -20 35v26q0 18 10.5 23t25.5 -4q46 -28 89 -42.5t81 -14.5q57 0 86.5 28.5t36.5 74.5
q5 32 -13.5 65t-63.5 72l-58 51q-27 24 -43.5 45.5t-25.5 43.5t-12 46.5t-3 53.5v60q0 28 30 28h92q29 0 29 -28v-43zM183 892q0 29 30 29h93q30 0 30 -29v-106q0 -29 -30 -29h-93q-30 0 -30 29v106z" />
    <glyph glyph-name="Agrave" unicode="&#xc0;" horiz-adv-x="914" 
d="M469 651q-12 34 -23 0l-115 -341q-5 -15 1.5 -24t22.5 -9h204q16 0 22.5 9t1.5 24zM394 838q9 22 33 22h60q24 0 33 -22l318 -805q6 -15 -0.5 -24t-22.5 -9h-117q-26 0 -32 25l-21 94q-6 26 -32 26h-312q-28 0 -33 -23l-17 -98q-5 -24 -32 -24h-120q-17 0 -23.5 9
t-0.5 24zM386 1262q10 0 18 -9l117 -156q13 -18 -9 -18h-98q-13 0 -18 11l-85 154q-5 8 -1.5 13t11.5 5h65z" />
    <glyph glyph-name="Aacute" unicode="&#xc1;" horiz-adv-x="914" 
d="M469 651q-12 34 -23 0l-115 -341q-5 -15 1.5 -24t22.5 -9h204q16 0 22.5 9t1.5 24zM394 838q9 22 33 22h60q24 0 33 -22l318 -805q6 -15 -0.5 -24t-22.5 -9h-117q-26 0 -32 25l-21 94q-6 26 -32 26h-312q-28 0 -33 -23l-17 -98q-5 -24 -32 -24h-120q-17 0 -23.5 9
t-0.5 24zM640 1264q8 0 11.5 -5t-1.5 -13l-85 -154q-6 -11 -18 -11h-98q-22 0 -9 18l117 156q7 9 18 9h65z" />
    <glyph glyph-name="Acircumflex" unicode="&#xc2;" horiz-adv-x="914" 
d="M469 651q-12 34 -23 0l-115 -341q-5 -15 1.5 -24t22.5 -9h204q16 0 22.5 9t1.5 24zM394 838q9 22 33 22h60q24 0 33 -22l318 -805q6 -15 -0.5 -24t-22.5 -9h-117q-26 0 -32 25l-21 94q-6 26 -32 26h-312q-28 0 -33 -23l-17 -98q-5 -24 -32 -24h-120q-17 0 -23.5 9
t-0.5 24zM419 1048q7 9 18 9h50q10 0 18 -9l128 -157q7 -8 4 -13t-13 -5h-76q-12 0 -18 10l-58 93q-11 16 -21 0l-58 -93q-6 -10 -18 -10h-65q-22 0 -9 18z" />
    <glyph glyph-name="Atilde" unicode="&#xc3;" horiz-adv-x="914" 
d="M469 651q-12 34 -23 0l-115 -341q-5 -15 1.5 -24t22.5 -9h204q16 0 22.5 9t1.5 24zM394 838q9 22 33 22h60q24 0 33 -22l318 -805q6 -15 -0.5 -24t-22.5 -9h-117q-26 0 -32 25l-21 94q-6 26 -32 26h-312q-28 0 -33 -23l-17 -98q-5 -24 -32 -24h-120q-17 0 -23.5 9
t-0.5 24zM460 1090q-36 50 -63.5 42.5t-33.5 -58.5q-2 -14 -15 -14h-32q-15 0 -14 16q3 46 19 75.5t39 41.5t50.5 6t53.5 -31l28 -27q30 -29 49 -17.5t21 59.5q1 15 15 15h32q15 0 14 -16q-3 -47 -20 -79t-41 -46t-51 -7t-51 40z" />
    <glyph glyph-name="Adieresis" unicode="&#xc4;" horiz-adv-x="914" 
d="M469 651q-12 34 -23 0l-115 -341q-5 -15 1.5 -24t22.5 -9h204q16 0 22.5 9t1.5 24zM394 838q9 22 33 22h60q24 0 33 -22l318 -805q6 -15 -0.5 -24t-22.5 -9h-117q-26 0 -32 25l-21 94q-6 26 -32 26h-312q-28 0 -33 -23l-17 -98q-5 -24 -32 -24h-120q-17 0 -23.5 9
t-0.5 24zM521 1024q0 15 15 15h76q15 0 15 -15v-76q0 -15 -15 -15h-76q-15 0 -15 15v76zM296 1024q0 15 15 15h77q15 0 15 -15v-76q0 -15 -15 -15h-77q-15 0 -15 15v76z" />
    <glyph glyph-name="Aring" unicode="&#xc5;" horiz-adv-x="914" 
d="M469 651q-12 34 -23 0l-115 -341q-5 -15 1.5 -24t22.5 -9h204q16 0 22.5 9t1.5 24zM394 838q9 22 33 22h60q24 0 33 -22l318 -805q6 -15 -0.5 -24t-22.5 -9h-117q-26 0 -32 25l-21 94q-6 26 -32 26h-312q-28 0 -33 -23l-17 -98q-5 -24 -32 -24h-120q-17 0 -23.5 9
t-0.5 24zM549 1018q0 36 -24.5 61.5t-62.5 25.5t-62.5 -24.5t-24.5 -62.5t24.5 -62.5t62.5 -24.5t62.5 25.5t24.5 61.5zM620 1018q0 -33 -12.5 -62t-33.5 -50t-50 -33.5t-62 -12.5t-62 12.5t-50 33.5t-33.5 50t-12.5 62t12.5 62t33.5 50t50 33.5t62 12.5t62 -12.5t50 -33.5
t33.5 -50t12.5 -62z" />
    <glyph glyph-name="AE" unicode="&#xc6;" horiz-adv-x="1297" 
d="M559 277q16 0 22.5 9t1.5 24l-114 341q-12 34 -23 0l-115 -341q-5 -15 1.5 -24t22.5 -9h204zM1196 204q28 0 28 -28v-148q0 -28 -28 -28h-498q-26 0 -32 25l-21 94q-6 26 -32 26h-312q-28 0 -33 -23l-17 -98q-5 -24 -32 -24h-120q-17 0 -23.5 9t-0.5 24l319 805
q9 22 33 22h60q24 0 33 -22l150 -380v374q0 28 29 28h486q29 0 29 -28v-21q0 -29 -29 -29h-370q-28 0 -28 -28v-219q0 -30 28 -30h353q28 0 28 -28v-40q0 -30 -28 -30h-353q-28 0 -28 -28v-145q0 -30 28 -30h381z" />
    <glyph glyph-name="Ccedilla" unicode="&#xc7;" horiz-adv-x="829" 
d="M722 266q12 8 24 5t10 -22l-12 -158q-1 -11 -5 -18t-14 -16q-43 -38 -104.5 -53.5t-128.5 -17.5q36 -47 39.5 -88.5t-19.5 -68t-69.5 -32.5t-109.5 18q-8 3 -9.5 9t4.5 12l25 27q9 10 21 4q30 -13 53.5 -12.5t34 14.5t5.5 42t-32 70l-3 6q-94 7 -162 41t-111.5 91
t-64.5 136t-21 177q0 103 26.5 186t78 140.5t126.5 88.5t172 31q72 0 137.5 -8t122.5 -37q23 -12 19 -34l-12 -55q-4 -18 -11 -22t-23 6q-54 33 -111.5 45t-121.5 12q-147 0 -215 -90.5t-65 -262.5q1 -71 13.5 -115.5t44 -69.5t85 -34t137.5 -9q32 0 67.5 4.5t69 13
t62.5 19.5t47 25z" />
    <glyph glyph-name="Egrave" unicode="&#xc8;" horiz-adv-x="700" 
d="M73 832q0 28 29 28h486q29 0 29 -28v-21q0 -29 -29 -29h-370q-28 0 -28 -28v-219q0 -30 28 -30h353q28 0 28 -28v-40q0 -30 -28 -30h-353q-28 0 -28 -28v-145q0 -30 28 -30h381q28 0 28 -28v-148q0 -28 -28 -28h-497q-29 0 -29 28v804zM259 1287q10 0 18 -9l117 -156
q13 -18 -9 -18h-98q-13 0 -18 11l-85 154q-5 8 -1.5 13t11.5 5h65z" />
    <glyph glyph-name="Eacute" unicode="&#xc9;" horiz-adv-x="700" 
d="M73 832q0 28 29 28h486q29 0 29 -28v-21q0 -29 -29 -29h-370q-28 0 -28 -28v-219q0 -30 28 -30h353q28 0 28 -28v-40q0 -30 -28 -30h-353q-28 0 -28 -28v-145q0 -30 28 -30h381q28 0 28 -28v-148q0 -28 -28 -28h-497q-29 0 -29 28v804zM513 1289q8 0 11.5 -5t-1.5 -13
l-85 -154q-6 -11 -18 -11h-98q-22 0 -9 18l117 156q7 9 18 9h65z" />
    <glyph glyph-name="Ecircumflex" unicode="&#xca;" horiz-adv-x="700" 
d="M73 832q0 28 29 28h486q29 0 29 -28v-21q0 -29 -29 -29h-370q-28 0 -28 -28v-219q0 -30 28 -30h353q28 0 28 -28v-40q0 -30 -28 -30h-353q-28 0 -28 -28v-145q0 -30 28 -30h381q28 0 28 -28v-148q0 -28 -28 -28h-497q-29 0 -29 28v804zM292 1073q7 9 18 9h50q10 0 18 -9
l128 -157q7 -8 4 -13t-13 -5h-76q-12 0 -18 10l-58 93q-11 16 -21 0l-58 -93q-6 -10 -18 -10h-65q-22 0 -9 18z" />
    <glyph glyph-name="Edieresis" unicode="&#xcb;" horiz-adv-x="700" 
d="M73 832q0 28 29 28h486q29 0 29 -28v-21q0 -29 -29 -29h-370q-28 0 -28 -28v-219q0 -30 28 -30h353q28 0 28 -28v-40q0 -30 -28 -30h-353q-28 0 -28 -28v-145q0 -30 28 -30h381q28 0 28 -28v-148q0 -28 -28 -28h-497q-29 0 -29 28v804zM394 1049q0 15 15 15h76
q15 0 15 -15v-76q0 -15 -15 -15h-76q-15 0 -15 15v76zM169 1049q0 15 15 15h77q15 0 15 -15v-76q0 -15 -15 -15h-77q-15 0 -15 15v76z" />
    <glyph glyph-name="Igrave" unicode="&#xcc;" horiz-adv-x="361" 
d="M74 29q27 103 48 210t29 211.5t-0.5 204t-40.5 189.5q-4 11 6 18.5t24 7.5h97q14 0 22 -8t6 -22q-8 -51 -13.5 -121t-7.5 -149t-1 -160.5t6 -154.5t14 -132t23 -92q6 -15 -3.5 -23t-23.5 -8h-157q-15 0 -23.5 7t-4.5 22zM112 1301q10 0 18 -9l117 -156q13 -18 -9 -18h-98
q-13 0 -18 11l-85 154q-5 8 -1.5 13t11.5 5h65z" />
    <glyph glyph-name="Iacute" unicode="&#xcd;" horiz-adv-x="361" 
d="M74 29q27 103 48 210t29 211.5t-0.5 204t-40.5 189.5q-4 11 6 18.5t24 7.5h97q14 0 22 -8t6 -22q-8 -51 -13.5 -121t-7.5 -149t-1 -160.5t6 -154.5t14 -132t23 -92q6 -15 -3.5 -23t-23.5 -8h-157q-15 0 -23.5 7t-4.5 22zM366 1303q8 0 11.5 -5t-1.5 -13l-85 -154
q-6 -11 -18 -11h-98q-22 0 -9 18l117 156q7 9 18 9h65z" />
    <glyph glyph-name="Icircumflex" unicode="&#xce;" horiz-adv-x="361" 
d="M74 29q27 103 48 210t29 211.5t-0.5 204t-40.5 189.5q-4 11 6 18.5t24 7.5h97q14 0 22 -8t6 -22q-8 -51 -13.5 -121t-7.5 -149t-1 -160.5t6 -154.5t14 -132t23 -92q6 -15 -3.5 -23t-23.5 -8h-157q-15 0 -23.5 7t-4.5 22zM145 1087q7 9 18 9h50q10 0 18 -9l128 -157
q7 -8 4 -13t-13 -5h-76q-12 0 -18 10l-58 93q-11 16 -21 0l-58 -93q-6 -10 -18 -10h-65q-22 0 -9 18z" />
    <glyph glyph-name="Idieresis" unicode="&#xcf;" horiz-adv-x="361" 
d="M74 29q27 103 48 210t29 211.5t-0.5 204t-40.5 189.5q-4 11 6 18.5t24 7.5h97q14 0 22 -8t6 -22q-8 -51 -13.5 -121t-7.5 -149t-1 -160.5t6 -154.5t14 -132t23 -92q6 -15 -3.5 -23t-23.5 -8h-157q-15 0 -23.5 7t-4.5 22zM247 1063q0 15 15 15h76q15 0 15 -15v-76
q0 -15 -15 -15h-76q-15 0 -15 15v76zM22 1063q0 15 15 15h77q15 0 15 -15v-76q0 -15 -15 -15h-77q-15 0 -15 15v76z" />
    <glyph glyph-name="Eth" unicode="&#xd0;" horiz-adv-x="1019" 
d="M486 204q64 0 125 7.5t108.5 31.5t76.5 68.5t29 119.5q0 76 -20 138t-61.5 105.5t-105.5 67t-152 23.5h-112q-28 0 -28 -29v-276h212q15 0 15 -15v-40q0 -15 -15 -15h-212v-158q0 -28 28 -28h112zM462 860q103 0 191.5 -25.5t153.5 -78.5t102 -133.5t37 -191.5t-37 -192
t-102.5 -134.5t-154 -79t-190.5 -25.5h-211q-28 0 -28 28v362h-135q-15 0 -15 15v40q0 15 15 15h135v372q0 28 28 28h211z" />
    <glyph glyph-name="Ntilde" unicode="&#xd1;" horiz-adv-x="820" 
d="M106 814q2 29 29 29h94q23 0 34 -21l326 -598q11 -20 22.5 -16.5t12.5 24.5l15 600q0 28 29 28h50q29 0 29 -28v-804q0 -28 -29 -28h-117q-24 0 -34 21l-332 628q-5 10 -11.5 14t-11.5 2.5t-8.5 -8t-2.5 -17.5l41 -611q2 -29 -28 -29h-113q-30 0 -28 29zM418 998
q-36 50 -63.5 42.5t-33.5 -58.5q-2 -14 -15 -14h-32q-15 0 -14 16q3 46 19 75.5t39 41.5t50.5 6t53.5 -31l28 -27q30 -29 49 -17.5t21 59.5q1 15 15 15h32q15 0 14 -16q-3 -47 -20 -79t-41 -46t-51 -7t-51 40z" />
    <glyph glyph-name="Ograve" unicode="&#xd2;" horiz-adv-x="932" 
d="M466 784q-63 0 -114 -24.5t-87 -70t-55.5 -111t-19.5 -146.5q0 -67 19.5 -110.5t55.5 -69t87 -35.5t114 -10t114 10t87 35.5t55 69t19 110.5q0 81 -19 146.5t-55 111t-87 70t-114 24.5zM466 878q82 0 153.5 -31.5t124.5 -90t84 -140.5t31 -184t-31 -184t-84 -140.5
t-124.5 -90t-153.5 -31.5t-153.5 31.5t-125 89.5t-84 140.5t-30.5 184.5t30.5 184t84 140.5t125 90t153.5 31.5zM390 1343q10 0 18 -9l117 -156q13 -18 -9 -18h-98q-13 0 -18 11l-85 154q-5 8 -1.5 13t11.5 5h65z" />
    <glyph glyph-name="Oacute" unicode="&#xd3;" horiz-adv-x="932" 
d="M466 784q-63 0 -114 -24.5t-87 -70t-55.5 -111t-19.5 -146.5q0 -67 19.5 -110.5t55.5 -69t87 -35.5t114 -10t114 10t87 35.5t55 69t19 110.5q0 81 -19 146.5t-55 111t-87 70t-114 24.5zM466 878q82 0 153.5 -31.5t124.5 -90t84 -140.5t31 -184t-31 -184t-84 -140.5
t-124.5 -90t-153.5 -31.5t-153.5 31.5t-125 89.5t-84 140.5t-30.5 184.5t30.5 184t84 140.5t125 90t153.5 31.5zM644 1345q8 0 11.5 -5t-1.5 -13l-85 -154q-6 -11 -18 -11h-98q-22 0 -9 18l117 156q7 9 18 9h65z" />
    <glyph glyph-name="Ocircumflex" unicode="&#xd4;" horiz-adv-x="932" 
d="M466 784q-63 0 -114 -24.5t-87 -70t-55.5 -111t-19.5 -146.5q0 -67 19.5 -110.5t55.5 -69t87 -35.5t114 -10t114 10t87 35.5t55 69t19 110.5q0 81 -19 146.5t-55 111t-87 70t-114 24.5zM466 878q82 0 153.5 -31.5t124.5 -90t84 -140.5t31 -184t-31 -184t-84 -140.5
t-124.5 -90t-153.5 -31.5t-153.5 31.5t-125 89.5t-84 140.5t-30.5 184.5t30.5 184t84 140.5t125 90t153.5 31.5zM423 1129q7 9 18 9h50q10 0 18 -9l128 -157q7 -8 4 -13t-13 -5h-76q-12 0 -18 10l-58 93q-11 16 -21 0l-58 -93q-6 -10 -18 -10h-65q-22 0 -9 18z" />
    <glyph glyph-name="Otilde" unicode="&#xd5;" horiz-adv-x="932" 
d="M466 784q-63 0 -114 -24.5t-87 -70t-55.5 -111t-19.5 -146.5q0 -67 19.5 -110.5t55.5 -69t87 -35.5t114 -10t114 10t87 35.5t55 69t19 110.5q0 81 -19 146.5t-55 111t-87 70t-114 24.5zM466 878q82 0 153.5 -31.5t124.5 -90t84 -140.5t31 -184t-31 -184t-84 -140.5
t-124.5 -90t-153.5 -31.5t-153.5 31.5t-125 89.5t-84 140.5t-30.5 184.5t30.5 184t84 140.5t125 90t153.5 31.5zM464 1171q-36 50 -63.5 42.5t-33.5 -58.5q-2 -14 -15 -14h-32q-15 0 -14 16q3 46 19 75.5t39 41.5t50.5 6t53.5 -31l28 -27q30 -29 49 -17.5t21 59.5
q1 15 15 15h32q15 0 14 -16q-3 -47 -20 -79t-41 -46t-51 -7t-51 40z" />
    <glyph glyph-name="Odieresis" unicode="&#xd6;" horiz-adv-x="932" 
d="M466 784q-63 0 -114 -24.5t-87 -70t-55.5 -111t-19.5 -146.5q0 -67 19.5 -110.5t55.5 -69t87 -35.5t114 -10t114 10t87 35.5t55 69t19 110.5q0 81 -19 146.5t-55 111t-87 70t-114 24.5zM466 878q82 0 153.5 -31.5t124.5 -90t84 -140.5t31 -184t-31 -184t-84 -140.5
t-124.5 -90t-153.5 -31.5t-153.5 31.5t-125 89.5t-84 140.5t-30.5 184.5t30.5 184t84 140.5t125 90t153.5 31.5zM525 1105q0 15 15 15h76q15 0 15 -15v-76q0 -15 -15 -15h-76q-15 0 -15 15v76zM300 1105q0 15 15 15h77q15 0 15 -15v-76q0 -15 -15 -15h-77q-15 0 -15 15v76z
" />
    <glyph glyph-name="multiply" unicode="&#xd7;" horiz-adv-x="671" 
d="M588 523q10 -11 0 -21l-149 -168q-11 -11 0 -21l154 -163q10 -11 0 -21l-63 -63q-10 -10 -21 -1l-163 155q-11 11 -22 0l-163 -155q-11 -9 -21 1l-62 62q-10 10 0 22l154 162q11 11 0 22l-144 153q-11 10 0 21l62 63q9 11 21 1l153 -146q10 -11 21 0l159 159q11 11 22 0z
" />
    <glyph glyph-name="Oslash" unicode="&#xd8;" horiz-adv-x="932" 
d="M466 207q63 0 114 10t87 35.5t55 69t19 110.5q0 93 -24 163t-69 116l-197 -504h15zM190 432q0 -99 42.5 -149t117.5 -66l234 541q-55 26 -118 26t-114 -24.5t-87 -70t-55.5 -111t-19.5 -146.5zM687 808q78 -57 125 -152t47 -224q0 -102 -31 -184t-84 -140.5t-124.5 -90
t-153.5 -31.5q-51 0 -97 12l-7 -18q-8 -20 -28 -20l-62 2q-31 2 -20 29l20 47q-45 26 -81.5 65t-62.5 89t-40.5 110.5t-14.5 129.5q0 102 30.5 184t84 140.5t125 90t153.5 31.5q84 0 156 -33l26 61q9 20 28 19l24 -1q14 -1 20 -8t1 -20z" />
    <glyph glyph-name="Ugrave" unicode="&#xd9;" horiz-adv-x="816" 
d="M73 834q0 29 28 29h66q29 0 29 -30l-5 -413q-2 -105 51 -159t167 -54q112 0 165 54t52 159l-4 413q0 30 28 30h65q28 0 28 -29l-5 -508q-3 -340 -329 -340q-165 0 -246.5 85t-83.5 255zM332 1304q10 0 18 -9l117 -156q13 -18 -9 -18h-98q-13 0 -18 11l-85 154
q-5 8 -1.5 13t11.5 5h65z" />
    <glyph glyph-name="Uacute" unicode="&#xda;" horiz-adv-x="816" 
d="M73 834q0 29 28 29h66q29 0 29 -30l-5 -413q-2 -105 51 -159t167 -54q112 0 165 54t52 159l-4 413q0 30 28 30h65q28 0 28 -29l-5 -508q-3 -340 -329 -340q-165 0 -246.5 85t-83.5 255zM586 1306q8 0 11.5 -5t-1.5 -13l-85 -154q-6 -11 -18 -11h-98q-22 0 -9 18l117 156
q7 9 18 9h65z" />
    <glyph glyph-name="Ucircumflex" unicode="&#xdb;" horiz-adv-x="816" 
d="M73 834q0 29 28 29h66q29 0 29 -30l-5 -413q-2 -105 51 -159t167 -54q112 0 165 54t52 159l-4 413q0 30 28 30h65q28 0 28 -29l-5 -508q-3 -340 -329 -340q-165 0 -246.5 85t-83.5 255zM365 1090q7 9 18 9h50q10 0 18 -9l128 -157q7 -8 4 -13t-13 -5h-76q-12 0 -18 10
l-58 93q-11 16 -21 0l-58 -93q-6 -10 -18 -10h-65q-22 0 -9 18z" />
    <glyph glyph-name="Udieresis" unicode="&#xdc;" horiz-adv-x="816" 
d="M73 834q0 29 28 29h66q29 0 29 -30l-5 -413q-2 -105 51 -159t167 -54q112 0 165 54t52 159l-4 413q0 30 28 30h65q28 0 28 -29l-5 -508q-3 -340 -329 -340q-165 0 -246.5 85t-83.5 255zM467 1066q0 15 15 15h76q15 0 15 -15v-76q0 -15 -15 -15h-76q-15 0 -15 15v76z
M242 1066q0 15 15 15h77q15 0 15 -15v-76q0 -15 -15 -15h-77q-15 0 -15 15v76z" />
    <glyph glyph-name="Yacute" unicode="&#xdd;" horiz-adv-x="846" 
d="M77 826q-8 15 -2 24.5t23 9.5h65q22 0 33 -20l209 -383q8 -15 19.5 -15t19.5 15l206 383q11 20 33 20h65q17 0 22.5 -9.5t-2.5 -24.5l-260 -514q-5 -10 -7.5 -18t-1.5 -19l24 -247q2 -13 -7 -20.5t-23 -7.5h-146q-14 0 -22.5 7t-6.5 21l23 247q1 11 -1 19t-7 18z
M600 1260q8 0 11.5 -5t-1.5 -13l-85 -154q-6 -11 -18 -11h-98q-22 0 -9 18l117 156q7 9 18 9h65z" />
    <glyph glyph-name="Thorn" unicode="&#xde;" horiz-adv-x="624" 
d="M348 230q29 1 52 7.5t41 21.5t30.5 40t20.5 63q2 9 2.5 15.5t-0.5 15.5q-5 88 -41 137.5t-105 49.5q-72 0 -112 -53.5t-40 -153.5q5 -38 11 -65.5t21 -45.5t43 -26t77 -6zM327 644q49 0 90.5 -20.5t71 -58.5t46 -91t16.5 -117q0 -65 -16.5 -117.5t-46 -90.5t-71 -58.5
t-90.5 -20.5q-64 0 -103.5 10.5t-62.5 30.5l1 -102q0 -25 -24 -25h-40q-26 0 -24 26q6 100 10.5 193t9.5 171q-4 72 -8 162t-11 201q-2 26 24 26h40q25 0 24 -25l-9 -137q-2 -17 5.5 -19t18.5 10q28 29 64.5 40.5t84.5 11.5z" />
    <glyph glyph-name="germandbls" unicode="&#xdf;" horiz-adv-x="767" 
d="M246 17q5 -17 -13 -17h-132q-28 0 -28 28v804q0 28 28 28q109 0 188.5 -1.5t135.5 -7.5t91.5 -18t55.5 -33t27 -53.5t7 -78.5q0 -36 -15 -62t-33.5 -46.5t-33.5 -37t-15 -32.5q0 -19 13.5 -31t34.5 -23.5t44.5 -25t44.5 -35t34.5 -54t13.5 -80.5q0 -61 -15.5 -106
t-54.5 -74.5t-106.5 -44.5t-170.5 -16q-17 0 -14 16l23 117q3 11 15 16q72 24 111 47t53.5 44.5t9 42t-22.5 40.5t-41 39.5t-45.5 39t-37 39t-15.5 39.5q0 23 10 39.5t25 29t33 24t33 25.5t25 32t10 45q0 45 -11 67.5t-44.5 31.5t-94.5 8.5t-161 -0.5q-31 0 -29 -29
q5 -115 9 -199.5t6.5 -146.5t5 -105t5.5 -74.5t6 -54.5t8 -46t11.5 -48.5t15.5 -61.5z" />
    <glyph glyph-name="agrave" unicode="&#xe0;" horiz-adv-x="608" 
d="M270 123q33 0 56.5 4.5t38.5 19t22.5 40.5t7.5 69q0 23 -24 23h-57q-46 0 -76.5 -4.5t-49.5 -14.5t-28 -25.5t-11 -36.5q-1 -8 -0.5 -14.5t3.5 -14.5q6 -16 17 -25t26 -13.5t34 -6t41 -1.5zM299 560q236 0 236 -248v-288q0 -24 -24 -24h-41q-25 0 -25 24v11
q0 17 -7.5 19.5t-19.5 -9.5q-29 -29 -68.5 -44t-93.5 -15q-42 0 -75.5 12.5t-57.5 35t-37 54.5t-13 71q0 186 246 186h102q24 0 24 9q0 63 -38 99.5t-117 40.5q-39 2 -76 -7t-72 -24q-13 -6 -21 -1.5t-8 18.5v21q0 20 20 28q84 31 166 31zM165 970q-5 8 -1.5 13t11.5 5h65
q10 0 18 -9l117 -156q13 -18 -9 -18h-98q-13 0 -18 11z" />
    <glyph glyph-name="aacute" unicode="&#xe1;" horiz-adv-x="608" 
d="M270 123q33 0 56.5 4.5t38.5 19t22.5 40.5t7.5 69q0 23 -24 23h-57q-46 0 -76.5 -4.5t-49.5 -14.5t-28 -25.5t-11 -36.5q-1 -8 -0.5 -14.5t3.5 -14.5q6 -16 17 -25t26 -13.5t34 -6t41 -1.5zM299 560q236 0 236 -248v-288q0 -24 -24 -24h-41q-25 0 -25 24v11
q0 17 -7.5 19.5t-19.5 -9.5q-29 -29 -68.5 -44t-93.5 -15q-42 0 -75.5 12.5t-57.5 35t-37 54.5t-13 71q0 186 246 186h102q24 0 24 9q0 63 -38 99.5t-117 40.5q-39 2 -76 -7t-72 -24q-13 -6 -21 -1.5t-8 18.5v21q0 20 20 28q84 31 166 31zM303 807q-22 0 -9 18l117 156
q7 9 18 9h65q8 0 11.5 -5t-1.5 -13l-85 -154q-6 -11 -18 -11h-98z" />
    <glyph glyph-name="acircumflex" unicode="&#xe2;" horiz-adv-x="608" 
d="M270 123q33 0 56.5 4.5t38.5 19t22.5 40.5t7.5 69q0 23 -24 23h-57q-46 0 -76.5 -4.5t-49.5 -14.5t-28 -25.5t-11 -36.5q-1 -8 -0.5 -14.5t3.5 -14.5q6 -16 17 -25t26 -13.5t34 -6t41 -1.5zM299 560q236 0 236 -248v-288q0 -24 -24 -24h-41q-25 0 -25 24v11
q0 17 -7.5 19.5t-19.5 -9.5q-29 -29 -68.5 -44t-93.5 -15q-42 0 -75.5 12.5t-57.5 35t-37 54.5t-13 71q0 186 246 186h102q24 0 24 9q0 63 -38 99.5t-117 40.5q-39 2 -76 -7t-72 -24q-13 -6 -21 -1.5t-8 18.5v21q0 20 20 28q84 31 166 31zM164 599q-22 0 -9 18l118 157
q7 9 18 9h50q10 0 18 -9l128 -157q7 -8 4 -13t-13 -5h-76q-12 0 -18 10l-58 93q-11 16 -21 0l-58 -93q-6 -10 -18 -10h-65z" />
    <glyph glyph-name="atilde" unicode="&#xe3;" horiz-adv-x="608" 
d="M270 123q33 0 56.5 4.5t38.5 19t22.5 40.5t7.5 69q0 23 -24 23h-57q-46 0 -76.5 -4.5t-49.5 -14.5t-28 -25.5t-11 -36.5q-1 -8 -0.5 -14.5t3.5 -14.5q6 -16 17 -25t26 -13.5t34 -6t41 -1.5zM299 560q236 0 236 -248v-288q0 -24 -24 -24h-41q-25 0 -25 24v11
q0 17 -7.5 19.5t-19.5 -9.5q-29 -29 -68.5 -44t-93.5 -15q-42 0 -75.5 12.5t-57.5 35t-37 54.5t-13 71q0 186 246 186h102q24 0 24 9q0 63 -38 99.5t-117 40.5q-39 2 -76 -7t-72 -24q-13 -6 -21 -1.5t-8 18.5v21q0 20 20 28q84 31 166 31zM170 786q-15 0 -14 16
q3 46 19 75.5t39 41.5t50.5 6t53.5 -31l28 -27q30 -29 49 -17.5t21 59.5q1 15 15 15h32q15 0 14 -16q-3 -47 -20 -79t-41 -46t-51 -7t-51 40q-36 50 -63.5 42.5t-33.5 -58.5q-2 -14 -15 -14h-32z" />
    <glyph glyph-name="adieresis" unicode="&#xe4;" horiz-adv-x="608" 
d="M270 123q33 0 56.5 4.5t38.5 19t22.5 40.5t7.5 69q0 23 -24 23h-57q-46 0 -76.5 -4.5t-49.5 -14.5t-28 -25.5t-11 -36.5q-1 -8 -0.5 -14.5t3.5 -14.5q6 -16 17 -25t26 -13.5t34 -6t41 -1.5zM299 560q236 0 236 -248v-288q0 -24 -24 -24h-41q-25 0 -25 24v11
q0 17 -7.5 19.5t-19.5 -9.5q-29 -29 -68.5 -44t-93.5 -15q-42 0 -75.5 12.5t-57.5 35t-37 54.5t-13 71q0 186 246 186h102q24 0 24 9q0 63 -38 99.5t-117 40.5q-39 2 -76 -7t-72 -24q-13 -6 -21 -1.5t-8 18.5v21q0 20 20 28q84 31 166 31zM390 659q-15 0 -15 15v76
q0 15 15 15h76q15 0 15 -15v-76q0 -15 -15 -15h-76zM165 659q-15 0 -15 15v76q0 15 15 15h77q15 0 15 -15v-76q0 -15 -15 -15h-77z" />
    <glyph glyph-name="aring" unicode="&#xe5;" horiz-adv-x="608" 
d="M270 123q33 0 56.5 4.5t38.5 19t22.5 40.5t7.5 69q0 23 -24 23h-57q-46 0 -76.5 -4.5t-49.5 -14.5t-28 -25.5t-11 -36.5q-1 -8 -0.5 -14.5t3.5 -14.5q6 -16 17 -25t26 -13.5t34 -6t41 -1.5zM299 560q236 0 236 -248v-288q0 -24 -24 -24h-41q-25 0 -25 24v11
q0 17 -7.5 19.5t-19.5 -9.5q-29 -29 -68.5 -44t-93.5 -15q-42 0 -75.5 12.5t-57.5 35t-37 54.5t-13 71q0 186 246 186h102q24 0 24 9q0 63 -38 99.5t-117 40.5q-39 2 -76 -7t-72 -24q-13 -6 -21 -1.5t-8 18.5v21q0 20 20 28q84 31 166 31zM316 831q-38 0 -62.5 -24.5
t-24.5 -62.5t24.5 -62.5t62.5 -24.5t62.5 25.5t24.5 61.5t-24.5 61.5t-62.5 25.5zM316 586q-33 0 -62 12.5t-50 33.5t-33.5 50t-12.5 62t12.5 62t33.5 50t50 33.5t62 12.5t62 -12.5t50 -33.5t33.5 -50t12.5 -62t-12.5 -62t-33.5 -50t-50 -33.5t-62 -12.5z" />
    <glyph glyph-name="ae" unicode="&#xe6;" horiz-adv-x="1010" 
d="M273 123q33 0 56.5 4.5t38.5 19t22.5 40.5t7.5 69q0 23 -24 23h-57q-46 0 -76.5 -4.5t-49.5 -14.5t-28 -25.5t-11 -36.5q-1 -8 -0.5 -14.5t3.5 -14.5q6 -16 17 -25t26 -13.5t34 -6t41 -1.5zM845 359q13 0 18 7.5t3 19.5q-10 57 -50.5 90.5t-100.5 33.5q-33 0 -61 -9.5
t-49.5 -26.5t-35 -40t-16.5 -50q-3 -26 23 -26zM715 560q41 0 81 -15.5t71.5 -46t50.5 -75.5t19 -104v-9q0 -25 -24 -25h-337q-24 0 -24 -25q0 -44 9.5 -70.5t30.5 -41.5t54.5 -20t82.5 -5q45 0 92 2t78 10q12 3 20 -0.5t8 -17.5l1 -73q0 -21 -18 -28q-21 -11 -40.5 -17.5
t-41 -9.5t-46.5 -3.5t-56 0.5q-121 3 -188 56v-18q0 -24 -24 -24h-41q-25 0 -25 24v11q0 17 -7.5 19.5t-19.5 -9.5q-29 -29 -68.5 -44t-93.5 -15q-42 0 -75.5 12.5t-57.5 35t-37 54.5t-13 71q0 186 246 186h102q24 0 24 9q0 63 -38 99.5t-117 40.5q-39 2 -76 -7t-72 -24
q-13 -6 -21 -1.5t-8 18.5v21q0 20 20 28q84 31 166 31q155 0 208 -104q33 49 84.5 76.5t120.5 27.5z" />
    <glyph glyph-name="ccedilla" unicode="&#xe7;" horiz-adv-x="579" 
d="M352 489q-88 0 -133.5 -58t-45.5 -158q7 -72 47 -109t128 -41q32 -2 64 7t64 20q28 10 28 -18l1 -90q0 -22 -18 -29q-56 -22 -120 -26q37 -47 40.5 -89t-19.5 -68.5t-69.5 -32.5t-109.5 18q-19 7 -5 21l25 27q9 10 21 4q30 -13 53.5 -12.5t34 14.5t5.5 42t-32 70
q-3 3 -3 7q-54 6 -97.5 28t-74 58.5t-47 86.5t-16.5 112q0 67 19 120t54.5 90t86.5 57t115 20q76 0 139 -25q19 -7 19 -28v-28q0 -14 -8 -18.5t-21 1.5q-62 27 -125 27z" />
    <glyph glyph-name="egrave" unicode="&#xe8;" horiz-adv-x="630" 
d="M465 359q13 0 18 7.5t3 19.5q-10 57 -50.5 90.5t-100.5 33.5q-33 0 -61 -9.5t-49.5 -26.5t-35 -40t-16.5 -50q-3 -26 23 -26zM557 310q0 -25 -24 -25h-337q-24 0 -24 -25q0 -44 9.5 -70.5t30.5 -41.5t54.5 -20t82.5 -5q45 0 92 2t78 10q12 3 20 -0.5t8 -17.5l1 -73
q0 -21 -18 -28q-21 -11 -40.5 -17.5t-41 -9.5t-46.5 -3.5t-56 0.5q-142 4 -208.5 71.5t-64.5 199.5q1 67 19 123t51.5 96t81.5 62t110 22q41 0 81 -15.5t71.5 -46t50.5 -75.5t19 -104v-9zM247 988q10 0 18 -9l117 -156q13 -18 -9 -18h-98q-13 0 -18 11l-85 154q-5 8 -1.5 13
t11.5 5h65z" />
    <glyph glyph-name="eacute" unicode="&#xe9;" horiz-adv-x="630" 
d="M465 359q13 0 18 7.5t3 19.5q-10 57 -50.5 90.5t-100.5 33.5q-33 0 -61 -9.5t-49.5 -26.5t-35 -40t-16.5 -50q-3 -26 23 -26zM557 310q0 -25 -24 -25h-337q-24 0 -24 -25q0 -44 9.5 -70.5t30.5 -41.5t54.5 -20t82.5 -5q45 0 92 2t78 10q12 3 20 -0.5t8 -17.5l1 -73
q0 -21 -18 -28q-21 -11 -40.5 -17.5t-41 -9.5t-46.5 -3.5t-56 0.5q-142 4 -208.5 71.5t-64.5 199.5q1 67 19 123t51.5 96t81.5 62t110 22q41 0 81 -15.5t71.5 -46t50.5 -75.5t19 -104v-9zM501 990q8 0 11.5 -5t-1.5 -13l-85 -154q-6 -11 -18 -11h-98q-22 0 -9 18l117 156
q7 9 18 9h65z" />
    <glyph glyph-name="ecircumflex" unicode="&#xea;" horiz-adv-x="630" 
d="M465 359q13 0 18 7.5t3 19.5q-10 57 -50.5 90.5t-100.5 33.5q-33 0 -61 -9.5t-49.5 -26.5t-35 -40t-16.5 -50q-3 -26 23 -26zM557 310q0 -25 -24 -25h-337q-24 0 -24 -25q0 -44 9.5 -70.5t30.5 -41.5t54.5 -20t82.5 -5q45 0 92 2t78 10q12 3 20 -0.5t8 -17.5l1 -73
q0 -21 -18 -28q-21 -11 -40.5 -17.5t-41 -9.5t-46.5 -3.5t-56 0.5q-142 4 -208.5 71.5t-64.5 199.5q1 67 19 123t51.5 96t81.5 62t110 22q41 0 81 -15.5t71.5 -46t50.5 -75.5t19 -104v-9zM280 774q7 9 18 9h50q10 0 18 -9l128 -157q7 -8 4 -13t-13 -5h-76q-12 0 -18 10
l-58 93q-11 16 -21 0l-58 -93q-6 -10 -18 -10h-65q-22 0 -9 18z" />
    <glyph glyph-name="edieresis" unicode="&#xeb;" horiz-adv-x="630" 
d="M465 359q13 0 18 7.5t3 19.5q-10 57 -50.5 90.5t-100.5 33.5q-33 0 -61 -9.5t-49.5 -26.5t-35 -40t-16.5 -50q-3 -26 23 -26zM557 310q0 -25 -24 -25h-337q-24 0 -24 -25q0 -44 9.5 -70.5t30.5 -41.5t54.5 -20t82.5 -5q45 0 92 2t78 10q12 3 20 -0.5t8 -17.5l1 -73
q0 -21 -18 -28q-21 -11 -40.5 -17.5t-41 -9.5t-46.5 -3.5t-56 0.5q-142 4 -208.5 71.5t-64.5 199.5q1 67 19 123t51.5 96t81.5 62t110 22q41 0 81 -15.5t71.5 -46t50.5 -75.5t19 -104v-9zM382 750q0 15 15 15h76q15 0 15 -15v-76q0 -15 -15 -15h-76q-15 0 -15 15v76z
M157 750q0 15 15 15h77q15 0 15 -15v-76q0 -15 -15 -15h-77q-15 0 -15 15v76z" />
    <glyph glyph-name="igrave" unicode="&#xec;" horiz-adv-x="364" 
d="M150 20q9 62 16.5 119.5t12 116.5t5.5 123t-3 141q-1 10 6 16t19 6h42q12 0 19 -6.5t5 -18.5q-6 -57 -9.5 -122.5t-2 -131.5t8.5 -128.5t21 -113.5q4 -13 -3.5 -19.5t-19.5 -6.5h-93q-27 0 -24 25zM151 844q10 0 18 -9l117 -156q13 -18 -9 -18h-98q-13 0 -18 11l-85 154
q-5 8 -1.5 13t11.5 5h65z" />
    <glyph glyph-name="iacute" unicode="&#xed;" horiz-adv-x="363" 
d="M88 20q9 62 16.5 119.5t12 116.5t5.5 123t-3 141q-1 10 6 16t19 6h42q12 0 19 -6.5t5 -18.5q-6 -57 -9.5 -122.5t-2 -131.5t8.5 -128.5t21 -113.5q4 -13 -3.5 -19.5t-19.5 -6.5h-93q-27 0 -24 25zM277 833q8 0 11.5 -5t-1.5 -13l-85 -154q-6 -11 -18 -11h-98q-22 0 -9 18
l117 156q7 9 18 9h65z" />
    <glyph glyph-name="icircumflex" unicode="&#xee;" horiz-adv-x="486" 
d="M159 20q9 62 16.5 119.5t12 116.5t5.5 123t-3 141q-1 10 6 16t19 6h42q12 0 19 -6.5t5 -18.5q-6 -57 -9.5 -122.5t-2 -131.5t8.5 -128.5t21 -113.5q4 -13 -3.5 -19.5t-19.5 -6.5h-93q-27 0 -24 25zM195 791q7 9 18 9h50q10 0 18 -9l128 -157q7 -8 4 -13t-13 -5h-76
q-12 0 -18 10l-58 93q-11 16 -21 0l-58 -93q-6 -10 -18 -10h-65q-22 0 -9 18z" />
    <glyph glyph-name="idieresis" unicode="&#xef;" horiz-adv-x="477" 
d="M163 20q9 62 16.5 119.5t12 116.5t5.5 123t-3 141q-1 10 6 16t19 6h42q12 0 19 -6.5t5 -18.5q-6 -57 -9.5 -122.5t-2 -131.5t8.5 -128.5t21 -113.5q4 -13 -3.5 -19.5t-19.5 -6.5h-93q-27 0 -24 25zM298 730q0 15 15 15h76q15 0 15 -15v-76q0 -15 -15 -15h-76
q-15 0 -15 15v76zM73 730q0 15 15 15h77q15 0 15 -15v-76q0 -15 -15 -15h-77q-15 0 -15 15v76z" />
    <glyph glyph-name="eth" unicode="&#xf0;" horiz-adv-x="648" 
d="M427 447q-45 16 -87 16q-82 0 -127 -52t-45 -149q0 -46 11 -71.5t31.5 -38t49 -15.5t64.5 -3q35 0 64 3t49.5 15.5t31.5 38t11 71.5q0 60 -13.5 105.5t-39.5 79.5zM522 696l-144 -48l80 -91q61 -71 89 -140.5t28 -154.5q0 -62 -18 -113t-51 -87t-79.5 -56t-102.5 -20
t-102.5 20t-79.5 56t-51 87t-18 113q0 61 17.5 111.5t50 86.5t77 56t98.5 20q9 0 21.5 -1t33.5 -4l-78 88l-156 -52l-16 48l137 45l-88 100h111l62 -71l163 54z" />
    <glyph glyph-name="ntilde" unicode="&#xf1;" horiz-adv-x="656" 
d="M583 25q3 -25 -24 -25h-98q-25 0 -24 25l18 307q9 155 -111 155q-84 0 -126.5 -46t-35.5 -127l24 -289q1 -25 -24 -25h-85q-24 0 -24 25l13 503q0 24 25 24h42q24 0 24 -25v-4q0 -16 8.5 -20t20.5 5q29 20 66 36t82 16q94 0 139 -57.5t57 -172.5zM308 816
q-36 50 -63.5 42.5t-33.5 -58.5q-2 -14 -15 -14h-32q-15 0 -14 16q3 46 19 75.5t39 41.5t50.5 6t53.5 -31l28 -27q30 -29 49 -17.5t21 59.5q1 15 15 15h32q15 0 14 -16q-3 -47 -20 -79t-41 -46t-51 -7t-51 40z" />
    <glyph glyph-name="ograve" unicode="&#xf2;" horiz-adv-x="648" 
d="M324 494q-72 0 -114 -54t-42 -151q0 -48 10.5 -77t31 -45t49.5 -21t65 -5t65 5.5t49 21t31 44.5t11 77q0 94 -42 149.5t-114 55.5zM324 560q118 0 184.5 -75.5t66.5 -211.5t-66.5 -211.5t-184.5 -75.5q-59 0 -105.5 19.5t-79 56.5t-49.5 90t-17 121q0 67 17 120.5
t49.5 90.5t79 56.5t105.5 19.5zM248 988q10 0 18 -9l117 -156q13 -18 -9 -18h-98q-13 0 -18 11l-85 154q-5 8 -1.5 13t11.5 5h65z" />
    <glyph glyph-name="oacute" unicode="&#xf3;" horiz-adv-x="648" 
d="M324 494q-72 0 -114 -54t-42 -151q0 -48 10.5 -77t31 -45t49.5 -21t65 -5t65 5.5t49 21t31 44.5t11 77q0 94 -42 149.5t-114 55.5zM324 560q118 0 184.5 -75.5t66.5 -211.5t-66.5 -211.5t-184.5 -75.5q-59 0 -105.5 19.5t-79 56.5t-49.5 90t-17 121q0 67 17 120.5
t49.5 90.5t79 56.5t105.5 19.5zM502 990q8 0 11.5 -5t-1.5 -13l-85 -154q-6 -11 -18 -11h-98q-22 0 -9 18l117 156q7 9 18 9h65z" />
    <glyph glyph-name="ocircumflex" unicode="&#xf4;" horiz-adv-x="648" 
d="M324 494q-72 0 -114 -54t-42 -151q0 -48 10.5 -77t31 -45t49.5 -21t65 -5t65 5.5t49 21t31 44.5t11 77q0 94 -42 149.5t-114 55.5zM324 560q118 0 184.5 -75.5t66.5 -211.5t-66.5 -211.5t-184.5 -75.5q-59 0 -105.5 19.5t-79 56.5t-49.5 90t-17 121q0 67 17 120.5
t49.5 90.5t79 56.5t105.5 19.5zM281 774q7 9 18 9h50q10 0 18 -9l128 -157q7 -8 4 -13t-13 -5h-76q-12 0 -18 10l-58 93q-11 16 -21 0l-58 -93q-6 -10 -18 -10h-65q-22 0 -9 18z" />
    <glyph glyph-name="otilde" unicode="&#xf5;" horiz-adv-x="648" 
d="M324 494q-72 0 -114 -54t-42 -151q0 -48 10.5 -77t31 -45t49.5 -21t65 -5t65 5.5t49 21t31 44.5t11 77q0 94 -42 149.5t-114 55.5zM324 560q118 0 184.5 -75.5t66.5 -211.5t-66.5 -211.5t-184.5 -75.5q-59 0 -105.5 19.5t-79 56.5t-49.5 90t-17 121q0 67 17 120.5
t49.5 90.5t79 56.5t105.5 19.5zM322 816q-36 50 -63.5 42.5t-33.5 -58.5q-2 -14 -15 -14h-32q-15 0 -14 16q3 46 19 75.5t39 41.5t50.5 6t53.5 -31l28 -27q30 -29 49 -17.5t21 59.5q1 15 15 15h32q15 0 14 -16q-3 -47 -20 -79t-41 -46t-51 -7t-51 40z" />
    <glyph glyph-name="odieresis" unicode="&#xf6;" horiz-adv-x="648" 
d="M324 494q-72 0 -114 -54t-42 -151q0 -48 10.5 -77t31 -45t49.5 -21t65 -5t65 5.5t49 21t31 44.5t11 77q0 94 -42 149.5t-114 55.5zM324 560q118 0 184.5 -75.5t66.5 -211.5t-66.5 -211.5t-184.5 -75.5q-59 0 -105.5 19.5t-79 56.5t-49.5 90t-17 121q0 67 17 120.5
t49.5 90.5t79 56.5t105.5 19.5zM383 750q0 15 15 15h76q15 0 15 -15v-76q0 -15 -15 -15h-76q-15 0 -15 15v76zM158 750q0 15 15 15h77q15 0 15 -15v-76q0 -15 -15 -15h-77q-15 0 -15 15v76z" />
    <glyph glyph-name="divide" unicode="&#xf7;" horiz-adv-x="797" 
d="M308 147q0 25 25 25h92q25 0 25 -25v-106q0 -25 -25 -25h-92q-25 0 -25 25v106zM73 346q0 15 15 15h596q15 0 15 -15v-62q0 -15 -15 -15h-596q-15 0 -15 15v62zM307 555q0 26 25 26h93q25 0 25 -26v-95q0 -26 -25 -26h-93q-25 0 -25 26v95z" />
    <glyph glyph-name="oslash" unicode="&#xf8;" horiz-adv-x="648" 
d="M337 141q33 1 59.5 7.5t45 22.5t28.5 44.5t10 73.5q0 82 -32 135zM168 289q0 -64 19 -95.5t54 -42.5l143 331q-27 12 -60 12q-72 0 -114 -54t-42 -151zM482 509q45 -36 69 -95.5t24 -140.5q0 -136 -66.5 -211.5t-184.5 -75.5q-24 0 -46 3l-72 -183q-8 -20 -28 -20l-62 2
q-31 2 -20 29l89 206q-54 35 -83 98.5t-29 151.5q0 67 17 120.5t49.5 90.5t79 56.5t105.5 19.5q50 0 88 -13l80 185q9 20 28 19l24 -1q14 -1 20 -8t1 -20z" />
    <glyph glyph-name="ugrave" unicode="&#xf9;" horiz-adv-x="596" 
d="M73 522q0 25 24 25h37q25 0 24 -25l-9 -234q-2 -58 5 -91t22.5 -49.5t39 -20.5t53.5 -4q37 0 66 8t49.5 28t31 53t10.5 84l-1 227q0 24 25 24l48 1q24 0 24 -24l1 -498q0 -25 -25 -25l-37 -1q-23 0 -23 25v13q0 17 -7 19.5t-19 -10.5q-58 -61 -147 -61q-192 0 -192 230
v306zM213 988q10 0 18 -9l117 -156q13 -18 -9 -18h-98q-13 0 -18 11l-85 154q-5 8 -1.5 13t11.5 5h65z" />
    <glyph glyph-name="uacute" unicode="&#xfa;" horiz-adv-x="596" 
d="M73 522q0 25 24 25h37q25 0 24 -25l-9 -234q-2 -58 5 -91t22.5 -49.5t39 -20.5t53.5 -4q37 0 66 8t49.5 28t31 53t10.5 84l-1 227q0 24 25 24l48 1q24 0 24 -24l1 -498q0 -25 -25 -25l-37 -1q-23 0 -23 25v13q0 17 -7 19.5t-19 -10.5q-58 -61 -147 -61q-192 0 -192 230
v306zM467 990q8 0 11.5 -5t-1.5 -13l-85 -154q-6 -11 -18 -11h-98q-22 0 -9 18l117 156q7 9 18 9h65z" />
    <glyph glyph-name="ucircumflex" unicode="&#xfb;" horiz-adv-x="596" 
d="M73 522q0 25 24 25h37q25 0 24 -25l-9 -234q-2 -58 5 -91t22.5 -49.5t39 -20.5t53.5 -4q37 0 66 8t49.5 28t31 53t10.5 84l-1 227q0 24 25 24l48 1q24 0 24 -24l1 -498q0 -25 -25 -25l-37 -1q-23 0 -23 25v13q0 17 -7 19.5t-19 -10.5q-58 -61 -147 -61q-192 0 -192 230
v306zM246 774q7 9 18 9h50q10 0 18 -9l128 -157q7 -8 4 -13t-13 -5h-76q-12 0 -18 10l-58 93q-11 16 -21 0l-58 -93q-6 -10 -18 -10h-65q-22 0 -9 18z" />
    <glyph glyph-name="udieresis" unicode="&#xfc;" horiz-adv-x="596" 
d="M73 522q0 25 24 25h37q25 0 24 -25l-9 -234q-2 -58 5 -91t22.5 -49.5t39 -20.5t53.5 -4q37 0 66 8t49.5 28t31 53t10.5 84l-1 227q0 24 25 24l48 1q24 0 24 -24l1 -498q0 -25 -25 -25l-37 -1q-23 0 -23 25v13q0 17 -7 19.5t-19 -10.5q-58 -61 -147 -61q-192 0 -192 230
v306zM348 750q0 15 15 15h76q15 0 15 -15v-76q0 -15 -15 -15h-76q-15 0 -15 15v76zM123 750q0 15 15 15h77q15 0 15 -15v-76q0 -15 -15 -15h-77q-15 0 -15 15v76z" />
    <glyph glyph-name="yacute" unicode="&#xfd;" horiz-adv-x="686" 
d="M392 -49q-29 -75 -58.5 -121.5t-59 -72.5t-60 -35t-60.5 -9h-57q-24 0 -24 24v75q0 24 24 24h38q26 0 53 18t51 46t43.5 62t30.5 67q2 7 3.5 15.5t-3.5 17.5l-213 456q-6 13 -0.5 21t19.5 8h44q18 0 29 -17l165 -271q8 -13 17.5 -12.5t16.5 14.5l125 268q9 18 28 18h47
q14 0 19.5 -7.5t0.5 -20.5zM530 990q8 0 11.5 -5t-1.5 -13l-85 -154q-6 -11 -18 -11h-98q-22 0 -9 18l117 156q7 9 18 9h65z" />
    <glyph glyph-name="thorn" unicode="&#xfe;" horiz-adv-x="636" 
d="M338 136q43 1 72 15.5t45.5 37t23 51.5t5.5 59q-3 88 -40 137.5t-106 49.5q-72 0 -112 -53.5t-40 -153.5q5 -38 11 -65.5t21 -45t43 -26t77 -6.5zM327 560q49 0 90.5 -20.5t71 -58.5t46 -91t16.5 -117q0 -65 -16.5 -117.5t-46 -90.5t-71 -58.5t-90.5 -20.5
q-67 0 -107 11.5t-64 33.5l6 -177q1 -25 -24 -25h-40q-26 0 -24 26q6 100 10 193.5t8 174.5q-5 55 -8.5 127.5t-6.5 153.5t-6.5 165.5t-7.5 164.5q-2 26 24 26h50q24 0 24 -25l-7 -318q-2 -36 24 -9q28 29 64.5 40.5t84.5 11.5z" />
    <glyph glyph-name="ydieresis" unicode="&#xff;" horiz-adv-x="686" 
d="M392 -49q-29 -75 -58.5 -121.5t-59 -72.5t-60 -35t-60.5 -9h-57q-24 0 -24 24v75q0 24 24 24h38q26 0 53 18t51 46t43.5 62t30.5 67q2 7 3.5 15.5t-3.5 17.5l-213 456q-6 13 -0.5 21t19.5 8h44q18 0 29 -17l165 -271q8 -13 17.5 -12.5t16.5 14.5l125 268q9 18 28 18h47
q14 0 19.5 -7.5t0.5 -20.5zM411 750q0 15 15 15h76q15 0 15 -15v-76q0 -15 -15 -15h-76q-15 0 -15 15v76zM186 750q0 15 15 15h77q15 0 15 -15v-76q0 -15 -15 -15h-77q-15 0 -15 15v76z" />
    <glyph glyph-name="Amacron" unicode="&#x100;" horiz-adv-x="914" 
d="M583 310q5 -15 -1.5 -24t-22.5 -9h-204q-16 0 -22.5 9t-1.5 24l115 341q11 34 23 0zM75 33q-6 -15 0.5 -24t23.5 -9h120q27 0 32 24l17 98q5 23 33 23h312q26 0 32 -26l21 -94q6 -25 32 -25h117q16 0 22.5 9t0.5 24l-318 805q-9 22 -33 22h-60q-24 0 -33 -22zM300 978
q0 15 15 15h289q15 0 15 -15v-71q0 -15 -15 -15h-289q-15 0 -15 15v71z" />
    <glyph glyph-name="amacron" unicode="&#x101;" horiz-adv-x="608" 
d="M270 123q33 0 56.5 4.5t38.5 19t22.5 40.5t7.5 69q0 23 -24 23h-57q-46 0 -76.5 -4.5t-49.5 -14.5t-28 -25.5t-11 -36.5q-1 -8 -0.5 -14.5t3.5 -14.5q6 -16 17 -25t26 -13.5t34 -6t41 -1.5zM299 560q236 0 236 -248v-288q0 -24 -24 -24h-41q-25 0 -25 24v11
q0 17 -7.5 19.5t-19.5 -9.5q-29 -29 -68.5 -44t-93.5 -15q-42 0 -75.5 12.5t-57.5 35t-37 54.5t-13 71q0 186 246 186h102q24 0 24 9q0 63 -38 99.5t-117 40.5q-39 2 -76 -7t-72 -24q-13 -6 -21 -1.5t-8 18.5v21q0 20 20 28q84 31 166 31zM169 618q-15 0 -15 15v71
q0 15 15 15h289q15 0 15 -15v-71q0 -15 -15 -15h-289z" />
    <glyph glyph-name="Abreve" unicode="&#x102;" horiz-adv-x="914" 
d="M469 651q-12 34 -23 0l-115 -341q-5 -15 1.5 -24t22.5 -9h204q16 0 22.5 9t1.5 24zM394 838q9 22 33 22h60q24 0 33 -22l318 -805q6 -15 -0.5 -24t-22.5 -9h-117q-26 0 -32 25l-21 94q-6 26 -32 26h-312q-28 0 -33 -23l-17 -98q-5 -24 -32 -24h-120q-17 0 -23.5 9
t-0.5 24zM353 1044q14 0 17 -13q16 -60 92 -60q75 0 92 60q4 13 17 13h38q16 0 15 -16q-9 -69 -52 -101.5t-110 -32.5t-110 32.5t-52 101.5q-1 16 15 16h38z" />
    <glyph glyph-name="abreve" unicode="&#x103;" horiz-adv-x="608" 
d="M270 123q33 0 56.5 4.5t38.5 19t22.5 40.5t7.5 69q0 23 -24 23h-57q-46 0 -76.5 -4.5t-49.5 -14.5t-28 -25.5t-11 -36.5q-1 -8 -0.5 -14.5t3.5 -14.5q6 -16 17 -25t26 -13.5t34 -6t41 -1.5zM299 560q236 0 236 -248v-288q0 -24 -24 -24h-41q-25 0 -25 24v11
q0 17 -7.5 19.5t-19.5 -9.5q-29 -29 -68.5 -44t-93.5 -15q-42 0 -75.5 12.5t-57.5 35t-37 54.5t-13 71q0 186 246 186h102q24 0 24 9q0 63 -38 99.5t-117 40.5q-39 2 -76 -7t-72 -24q-13 -6 -21 -1.5t-8 18.5v21q0 20 20 28q84 31 166 31zM316 620q-67 0 -110 32.5
t-52 101.5q-1 16 15 16h38q14 0 17 -13q16 -60 92 -60q75 0 92 60q4 13 17 13h38q16 0 15 -16q-9 -69 -52 -101.5t-110 -32.5z" />
    <glyph glyph-name="Aogonek" unicode="&#x104;" horiz-adv-x="914" 
d="M677 0q9 0 11.5 -5.5t-2.5 -13.5q-27 -42 -32 -70t5.5 -42t34 -14.5t53.5 12.5q12 6 21 -4l25 -27q14 -14 -5 -21q-63 -25 -110 -18t-70 34t-18.5 70t43.5 90q6 9 18 9h26zM469 651q-12 34 -23 0l-115 -341q-5 -15 1.5 -24t22.5 -9h204q16 0 22.5 9t1.5 24zM394 838
q9 22 33 22h60q24 0 33 -22l318 -805q6 -15 -0.5 -24t-22.5 -9h-117q-26 0 -32 25l-21 94q-6 26 -32 26h-312q-28 0 -33 -23l-17 -98q-5 -24 -32 -24h-120q-17 0 -23.5 9t-0.5 24z" />
    <glyph glyph-name="aogonek" unicode="&#x105;" horiz-adv-x="608" 
d="M270 123q33 0 56.5 4.5t38.5 19t22.5 40.5t7.5 69q0 23 -24 23h-57q-46 0 -76.5 -4.5t-49.5 -14.5t-28 -25.5t-11 -36.5q-1 -8 -0.5 -14.5t3.5 -14.5q6 -16 17 -25t26 -13.5t34 -6t41 -1.5zM596 -135q14 -14 -5 -21q-63 -25 -110 -18t-70 34t-18.5 70t43.5 90q2 2 9 8v7
q0 17 -7.5 19.5t-19.5 -9.5q-29 -29 -68.5 -44t-93.5 -15q-42 0 -75.5 12.5t-57.5 35t-37 54.5t-13 71q0 186 246 186h102q24 0 24 9q0 63 -38 99.5t-117 40.5q-39 2 -76 -7t-72 -24q-13 -6 -21 -1.5t-8 18.5v21q0 20 20 28q84 31 166 31q236 0 236 -248v-288q0 -24 -24 -24
h-28q-23 -39 -26.5 -65t7.5 -38.5t34 -12.5t52 12q13 5 21 -4z" />
    <glyph glyph-name="Cacute" unicode="&#x106;" horiz-adv-x="829" 
d="M743 744q-4 -18 -11 -22t-23 6q-54 33 -111.5 45t-121.5 12q-147 0 -215 -90.5t-65 -262.5q1 -71 13.5 -115.5t44 -69.5t85 -34t137.5 -9q32 0 67.5 4.5t69 13t62.5 19.5t47 25q12 8 24 5t10 -22l-12 -158q-1 -11 -5 -18t-14 -16q-23 -21 -51 -34.5t-60.5 -21.5
t-67 -11.5t-70.5 -3.5q-106 0 -182 31t-125 88.5t-72.5 140t-23.5 186.5q0 103 26.5 186t78 140.5t126.5 88.5t172 31q72 0 137.5 -8t122.5 -37q23 -12 19 -34zM612 1282q8 0 11.5 -5t-1.5 -13l-85 -154q-6 -11 -18 -11h-98q-22 0 -9 18l117 156q7 9 18 9h65z" />
    <glyph glyph-name="cacute" unicode="&#x107;" horiz-adv-x="579" 
d="M506 479q0 -14 -8 -18.5t-21 1.5q-62 27 -125 27q-88 0 -133.5 -58t-45.5 -158q7 -72 47 -109t128 -41q32 -2 64 7t64 20q28 10 28 -18l1 -90q0 -22 -18 -29q-68 -27 -145 -27q-62 0 -111.5 20t-84.5 57.5t-54 90.5t-19 119q0 67 19 120t54.5 90t86.5 57t115 20
q76 0 139 -25q19 -7 19 -28v-28zM488 990q8 0 11.5 -5t-1.5 -13l-85 -154q-6 -11 -18 -11h-98q-22 0 -9 18l117 156q7 9 18 9h65z" />
    <glyph glyph-name="Cdotaccent" unicode="&#x10a;" horiz-adv-x="829" 
d="M743 744q-4 -18 -11 -22t-23 6q-54 33 -111.5 45t-121.5 12q-147 0 -215 -90.5t-65 -262.5q1 -71 13.5 -115.5t44 -69.5t85 -34t137.5 -9q32 0 67.5 4.5t69 13t62.5 19.5t47 25q12 8 24 5t10 -22l-12 -158q-1 -11 -5 -18t-14 -16q-23 -21 -51 -34.5t-60.5 -21.5
t-67 -11.5t-70.5 -3.5q-106 0 -182 31t-125 88.5t-72.5 140t-23.5 186.5q0 103 26.5 186t78 140.5t126.5 88.5t172 31q72 0 137.5 -8t122.5 -37q23 -12 19 -34zM385 1035q0 15 15 15l66 1q15 0 15 -15l2 -74q0 -15 -15 -15h-70q-15 0 -15 15z" />
    <glyph glyph-name="cdotaccent" unicode="&#x10b;" horiz-adv-x="579" 
d="M506 479q0 -14 -8 -18.5t-21 1.5q-62 27 -125 27q-88 0 -133.5 -58t-45.5 -158q7 -72 47 -109t128 -41q32 -2 64 7t64 20q28 10 28 -18l1 -90q0 -22 -18 -29q-68 -27 -145 -27q-62 0 -111.5 20t-84.5 57.5t-54 90.5t-19 119q0 67 19 120t54.5 90t86.5 57t115 20
q76 0 139 -25q19 -7 19 -28v-28zM261 743q0 15 15 15l66 1q15 0 15 -15l2 -74q0 -15 -15 -15h-70q-15 0 -15 15z" />
    <glyph glyph-name="Ccaron" unicode="&#x10c;" horiz-adv-x="829" 
d="M743 744q-4 -18 -11 -22t-23 6q-54 33 -111.5 45t-121.5 12q-147 0 -215 -90.5t-65 -262.5q1 -71 13.5 -115.5t44 -69.5t85 -34t137.5 -9q32 0 67.5 4.5t69 13t62.5 19.5t47 25q12 8 24 5t10 -22l-12 -158q-1 -11 -5 -18t-14 -16q-23 -21 -51 -34.5t-60.5 -21.5
t-67 -11.5t-70.5 -3.5q-106 0 -182 31t-125 88.5t-72.5 140t-23.5 186.5q0 103 26.5 186t78 140.5t126.5 88.5t172 31q72 0 137.5 -8t122.5 -37q23 -12 19 -34zM282 1074q-13 18 9 18h65q12 0 18 -10l58 -93q10 -17 21 0l58 93q6 10 18 10h76q10 0 13 -5t-4 -13l-128 -157
q-8 -9 -18 -9h-50q-11 0 -18 9z" />
    <glyph glyph-name="ccaron" unicode="&#x10d;" horiz-adv-x="579" 
d="M506 479q0 -14 -8 -18.5t-21 1.5q-62 27 -125 27q-88 0 -133.5 -58t-45.5 -158q7 -72 47 -109t128 -41q32 -2 64 7t64 20q28 10 28 -18l1 -90q0 -22 -18 -29q-68 -27 -145 -27q-62 0 -111.5 20t-84.5 57.5t-54 90.5t-19 119q0 67 19 120t54.5 90t86.5 57t115 20
q76 0 139 -25q19 -7 19 -28v-28zM158 782q-13 18 9 18h65q12 0 18 -10l58 -93q10 -17 21 0l58 93q6 10 18 10h76q10 0 13 -5t-4 -13l-128 -157q-8 -9 -18 -9h-50q-11 0 -18 9z" />
    <glyph glyph-name="Dcaron" unicode="&#x10e;" horiz-adv-x="869" 
d="M224 765q-28 0 -28 -29v-504q0 -28 28 -28h112q64 0 125 7.5t108.5 31.5t76.5 68.5t29 119.5q0 76 -20 138t-61.5 105.5t-105.5 67t-152 23.5h-112zM73 832q0 28 28 28h211q103 0 191.5 -25.5t153.5 -78.5t102 -133.5t37 -191.5t-37 -192t-102.5 -134.5t-154 -79
t-190.5 -25.5h-211q-28 0 -28 28v804zM257 1080q-13 18 9 18h65q12 0 18 -10l58 -93q10 -17 21 0l58 93q6 10 18 10h76q10 0 13 -5t-4 -13l-128 -157q-8 -9 -18 -9h-50q-11 0 -18 9z" />
    <glyph glyph-name="dcaron" unicode="&#x10f;" horiz-adv-x="644" 
d="M290 495q-69 0 -109 -51.5t-43 -145.5v-15t2 -15q13 -63 46.5 -91t101.5 -28q36 0 63 5t45 20t27 43t9 73q0 100 -35 152.5t-107 52.5zM547 860q24 0 24 -25l-9 -811q0 -24 -24 -24h-41q-25 0 -25 24v14q0 17 -7.5 19t-18.5 -11q-53 -60 -149 -60q-50 0 -91 20.5
t-70.5 58.5t-46 90.5t-16.5 117.5q0 64 16.5 117t46 91t70.5 58.5t91 20.5q48 0 86 -14.5t64 -45.5q11 -13 19 -11.5t8 18.5l7 329q0 24 25 24h41zM652 852q0 15 15 15h97q15 0 15 -15v-79q0 -11 -4 -19l-88 -172q-6 -11 -18 -11h-49q-18 0 -13 17l43 166q1 5 1.5 9t0.5 9
v80z" />
    <glyph glyph-name="Dcroat" unicode="&#x110;" horiz-adv-x="869" 
d="M336 765q88 0 152 -23.5t105.5 -67t61.5 -105.5t20 -138q0 -75 -29 -119.5t-76.5 -68.5t-108.5 -31.5t-125 -7.5h-112q-28 0 -28 28v504q0 29 28 29h112zM73 28q0 -28 28 -28h211q102 0 190.5 25.5t154 79t102.5 134.5t37 192t-37 191.5t-102 133.5t-153.5 78.5
t-191.5 25.5h-211q-28 0 -28 -28v-804zM247 1002q0 15 15 15h289q15 0 15 -15v-71q0 -15 -15 -15h-289q-15 0 -15 15v71z" />
    <glyph glyph-name="dcroat" unicode="&#x111;" horiz-adv-x="774" 
d="M288 149q36 0 63 5t45 20t27 43t9 73q0 100 -35 152.5t-107 52.5q-69 0 -109 -51.5t-43 -145.5v-15t2 -15q13 -63 46.5 -91t101.5 -28zM686 707q15 0 15 -15v-62q0 -15 -15 -15h-117l-7 -591q0 -24 -24 -24h-41q-25 0 -25 24v14q0 17 -7.5 19t-18.5 -11q-53 -60 -149 -60
q-50 0 -91 20.5t-70.5 58.5t-46 90.5t-16.5 117.5q0 64 16.5 117t46 91t70.5 58.5t91 20.5q48 0 86 -14.5t64 -45.5q11 -13 19 -11.5t8 18.5l2 108h-126q-15 0 -15 15v62q0 15 15 15h128l3 129q0 24 25 24h41q24 0 24 -25l-1 -128h116z" />
    <glyph glyph-name="Emacron" unicode="&#x112;" horiz-adv-x="700" 
d="M73 28q0 -28 29 -28h497q28 0 28 28v148q0 28 -28 28h-381q-28 0 -28 30v145q0 28 28 28h353q28 0 28 30v40q0 28 -28 28h-353q-28 0 -28 30v219q0 28 28 28h370q29 0 29 29v21q0 28 -29 28h-486q-29 0 -29 -28v-804zM173 1003q0 15 15 15h289q15 0 15 -15v-71
q0 -15 -15 -15h-289q-15 0 -15 15v71z" />
    <glyph glyph-name="emacron" unicode="&#x113;" horiz-adv-x="630" 
d="M196 358q-26 0 -23 26q3 27 16.5 50t35 40t49.5 26.5t61 9.5q60 0 100.5 -33.5t50.5 -90.5q2 -12 -3 -19.5t-18 -7.5zM557 319q0 59 -19 104t-50.5 75.5t-71.5 46t-81 15.5q-62 0 -110 -22t-81.5 -62t-51.5 -96t-19 -123q-2 -132 64.5 -199.5t208.5 -71.5q31 -1 56 -0.5
t46.5 3.5t41 9.5t40.5 17.5q18 7 18 28l-1 73q0 14 -8 17.5t-20 0.5q-31 -8 -78 -10t-92 -2q-49 0 -82.5 5t-54.5 20t-30.5 41.5t-9.5 70.5q0 25 24 25h337q24 0 24 25v9zM161 704q0 15 15 15h289q15 0 15 -15v-71q0 -15 -15 -15h-289q-15 0 -15 15v71z" />
    <glyph glyph-name="Edotaccent" unicode="&#x116;" horiz-adv-x="700" 
d="M73 832q0 28 29 28h486q29 0 29 -28v-21q0 -29 -29 -29h-370q-28 0 -28 -28v-219q0 -30 28 -30h353q28 0 28 -28v-40q0 -30 -28 -30h-353q-28 0 -28 -28v-145q0 -30 28 -30h381q28 0 28 -28v-148q0 -28 -28 -28h-497q-29 0 -29 28v804zM286 1042q0 15 15 15l66 1
q15 0 15 -15l2 -74q0 -15 -15 -15h-70q-15 0 -15 15z" />
    <glyph glyph-name="edotaccent" unicode="&#x117;" horiz-adv-x="630" 
d="M465 359q13 0 18 7.5t3 19.5q-10 57 -50.5 90.5t-100.5 33.5q-33 0 -61 -9.5t-49.5 -26.5t-35 -40t-16.5 -50q-3 -26 23 -26zM557 310q0 -25 -24 -25h-337q-24 0 -24 -25q0 -44 9.5 -70.5t30.5 -41.5t54.5 -20t82.5 -5q45 0 92 2t78 10q12 3 20 -0.5t8 -17.5l1 -73
q0 -21 -18 -28q-21 -11 -40.5 -17.5t-41 -9.5t-46.5 -3.5t-56 0.5q-142 4 -208.5 71.5t-64.5 199.5q1 67 19 123t51.5 96t81.5 62t110 22q41 0 81 -15.5t71.5 -46t50.5 -75.5t19 -104v-9zM274 743q0 15 15 15l66 1q15 0 15 -15l2 -74q0 -15 -15 -15h-70q-15 0 -15 15z" />
    <glyph glyph-name="Eogonek" unicode="&#x118;" horiz-adv-x="700" 
d="M599 204q28 0 28 -28v-148q0 -28 -28 -28h-233q9 0 11.5 -5.5t-2.5 -13.5q-27 -42 -32 -70t5.5 -42t34 -14.5t53.5 12.5q12 6 21 -4l25 -27q14 -14 -5 -21q-63 -25 -110 -18t-70 34t-18.5 70t43.5 90q6 9 18 9h-238q-29 0 -29 28v804q0 28 29 28h486q29 0 29 -28v-21
q0 -29 -29 -29h-370q-28 0 -28 -28v-219q0 -30 28 -30h353q28 0 28 -28v-40q0 -30 -28 -30h-353q-28 0 -28 -28v-145q0 -30 28 -30h381z" />
    <glyph glyph-name="eogonek" unicode="&#x119;" horiz-adv-x="630" 
d="M465 359q13 0 18 7.5t3 19.5q-10 57 -50.5 90.5t-100.5 33.5q-33 0 -61 -9.5t-49.5 -26.5t-35 -40t-16.5 -50q-3 -26 23 -26zM335 560q41 0 81 -15.5t71.5 -46t50.5 -75.5t19 -104v-9q0 -25 -24 -25h-337q-24 0 -24 -25q0 -44 9.5 -70.5t30.5 -41.5t54.5 -20t82.5 -5
q45 0 92 2t78 10q12 3 20 -0.5t8 -17.5l1 -73q0 -21 -18 -28q-27 -14 -51.5 -20t-54.5 -8q4 -6 -2 -14q-27 -42 -32 -70t5.5 -42t34 -14.5t53.5 12.5q12 6 21 -4l25 -27q14 -14 -5 -21q-63 -25 -110 -18t-70 34t-18.5 70t43.5 90l2 2h-25q-140 0 -207.5 69.5t-65.5 201.5
q1 67 19 123t51.5 96t81.5 62t110 22z" />
    <glyph glyph-name="Ecaron" unicode="&#x11a;" horiz-adv-x="700" 
d="M73 832q0 28 29 28h486q29 0 29 -28v-21q0 -29 -29 -29h-370q-28 0 -28 -28v-219q0 -30 28 -30h353q28 0 28 -28v-40q0 -30 -28 -30h-353q-28 0 -28 -28v-145q0 -30 28 -30h381q28 0 28 -28v-148q0 -28 -28 -28h-497q-29 0 -29 28v804zM183 1081q-13 18 9 18h65
q12 0 18 -10l58 -93q10 -17 21 0l58 93q6 10 18 10h76q10 0 13 -5t-4 -13l-128 -157q-8 -9 -18 -9h-50q-11 0 -18 9z" />
    <glyph glyph-name="ecaron" unicode="&#x11b;" horiz-adv-x="630" 
d="M465 359q13 0 18 7.5t3 19.5q-10 57 -50.5 90.5t-100.5 33.5q-33 0 -61 -9.5t-49.5 -26.5t-35 -40t-16.5 -50q-3 -26 23 -26zM557 310q0 -25 -24 -25h-337q-24 0 -24 -25q0 -44 9.5 -70.5t30.5 -41.5t54.5 -20t82.5 -5q45 0 92 2t78 10q12 3 20 -0.5t8 -17.5l1 -73
q0 -21 -18 -28q-21 -11 -40.5 -17.5t-41 -9.5t-46.5 -3.5t-56 0.5q-142 4 -208.5 71.5t-64.5 199.5q1 67 19 123t51.5 96t81.5 62t110 22q41 0 81 -15.5t71.5 -46t50.5 -75.5t19 -104v-9zM171 782q-13 18 9 18h65q12 0 18 -10l58 -93q10 -17 21 0l58 93q6 10 18 10h76
q10 0 13 -5t-4 -13l-128 -157q-8 -9 -18 -9h-50q-11 0 -18 9z" />
    <glyph glyph-name="Gbreve" unicode="&#x11e;" horiz-adv-x="897" 
d="M692 305q0 17 -18 17h-149q-18 0 -18 18v77q0 17 18 17h282q17 0 17 -17v-320q0 -14 -10 -23q-67 -43 -144.5 -65.5t-167.5 -22.5q-101 0 -180.5 30t-135 87.5t-84.5 140.5t-29 188t33 188t91 140.5t136.5 87.5t168.5 30h36t55.5 -3.5t81.5 -11.5t115 -24q6 -2 8.5 -8
t3.5 -13l12 -78q2 -11 -4.5 -11.5t-17.5 2.5q-67 16 -115.5 24.5t-81.5 12.5t-53 4.5t-30 0.5q-68 0 -124.5 -19t-97 -58.5t-63 -102t-20.5 -149.5q1 -92 12.5 -146t43.5 -81.5t91.5 -35t157.5 -7.5q57 0 101.5 8.5t69.5 26.5q9 7 9 21v75zM352 1096q14 0 17 -13
q16 -60 92 -60q75 0 92 60q4 13 17 13h38q16 0 15 -16q-9 -69 -52 -101.5t-110 -32.5t-110 32.5t-52 101.5q-1 16 15 16h38z" />
    <glyph glyph-name="gbreve" unicode="&#x11f;" horiz-adv-x="644" 
d="M437 285q0 100 -40 152.5t-113 52.5q-72 0 -107.5 -52.5t-35.5 -152.5q5 -48 13.5 -76t23.5 -42t39 -17.5t60 -3.5t65.5 3.5t50.5 17.5t32.5 42t11.5 76zM557 68q-4 -129 -20.5 -211.5t-48 -129.5t-78 -64.5t-110.5 -17.5q-84 0 -151 22q-20 6 -20 27v108q0 14 8 18.5
t21 -1.5q32 -14 64 -20.5t64 -6.5q72 0 112 51.5t57 166.5q2 14 4 26t1.5 18.5t-5 6.5t-15.5 -10q-25 -23 -61 -37t-82 -14q-50 0 -91.5 20t-71 56.5t-45.5 88.5t-16 115t16 115t45.5 88.5t71 56.5t91.5 20q98 0 151 -62q11 -13 19 -11.5t10 18.5l2 21q1 21 26 21h42
q25 0 24 -25zM224 770q14 0 17 -13q16 -60 92 -60q75 0 92 60q4 13 17 13h38q16 0 15 -16q-9 -69 -52 -101.5t-110 -32.5t-110 32.5t-52 101.5q-1 16 15 16h38z" />
    <glyph glyph-name="Gdotaccent" unicode="&#x120;" horiz-adv-x="897" 
d="M692 305q0 17 -18 17h-149q-18 0 -18 18v77q0 17 18 17h282q17 0 17 -17v-320q0 -14 -10 -23q-67 -43 -144.5 -65.5t-167.5 -22.5q-101 0 -180.5 30t-135 87.5t-84.5 140.5t-29 188t33 188t91 140.5t136.5 87.5t168.5 30h36t55.5 -3.5t81.5 -11.5t115 -24q6 -2 8.5 -8
t3.5 -13l12 -78q2 -11 -4.5 -11.5t-17.5 2.5q-67 16 -115.5 24.5t-81.5 12.5t-53 4.5t-30 0.5q-68 0 -124.5 -19t-97 -58.5t-63 -102t-20.5 -149.5q1 -92 12.5 -146t43.5 -81.5t91.5 -35t157.5 -7.5q57 0 101.5 8.5t69.5 26.5q9 7 9 21v75zM412 1069q0 15 15 15l66 1
q15 0 15 -15l2 -74q0 -15 -15 -15h-70q-15 0 -15 15z" />
    <glyph glyph-name="gdotaccent" unicode="&#x121;" horiz-adv-x="644" 
d="M437 285q0 100 -40 152.5t-113 52.5q-72 0 -107.5 -52.5t-35.5 -152.5q5 -48 13.5 -76t23.5 -42t39 -17.5t60 -3.5t65.5 3.5t50.5 17.5t32.5 42t11.5 76zM557 68q-4 -129 -20.5 -211.5t-48 -129.5t-78 -64.5t-110.5 -17.5q-84 0 -151 22q-20 6 -20 27v108q0 14 8 18.5
t21 -1.5q32 -14 64 -20.5t64 -6.5q72 0 112 51.5t57 166.5q2 14 4 26t1.5 18.5t-5 6.5t-15.5 -10q-25 -23 -61 -37t-82 -14q-50 0 -91.5 20t-71 56.5t-45.5 88.5t-16 115t16 115t45.5 88.5t71 56.5t91.5 20q98 0 151 -62q11 -13 19 -11.5t10 18.5l2 21q1 21 26 21h42
q25 0 24 -25zM284 743q0 15 15 15l66 1q15 0 15 -15l2 -74q0 -15 -15 -15h-70q-15 0 -15 15z" />
    <glyph glyph-name="Gcommaaccent" unicode="&#x122;" horiz-adv-x="897" 
d="M354 -98q-4 25 26 25h77q13 0 18.5 -6t7.5 -19l10 -66q3 -16 -10 -32l-104 -133q-12 -17 -30 -17h-16q-14 0 -20.5 8.5t-1.5 20.5l49 120q7 15 4 32zM692 305q0 17 -18 17h-149q-18 0 -18 18v77q0 17 18 17h282q17 0 17 -17v-320q0 -14 -10 -23q-67 -43 -144.5 -65.5
t-167.5 -22.5q-101 0 -180.5 30t-135 87.5t-84.5 140.5t-29 188t33 188t91 140.5t136.5 87.5t168.5 30h36t55.5 -3.5t81.5 -11.5t115 -24q6 -2 8.5 -8t3.5 -13l12 -78q2 -11 -4.5 -11.5t-17.5 2.5q-67 16 -115.5 24.5t-81.5 12.5t-53 4.5t-30 0.5q-68 0 -124.5 -19
t-97 -58.5t-63 -102t-20.5 -149.5q1 -92 12.5 -146t43.5 -81.5t91.5 -35t157.5 -7.5q57 0 101.5 8.5t69.5 26.5q9 7 9 21v75z" />
    <glyph glyph-name="gcommaaccent" unicode="&#x123;" horiz-adv-x="644" 
d="M277 146q36 0 65.5 3.5t50.5 17.5t32.5 42t11.5 76q0 100 -40 152.5t-113 52.5q-72 0 -107.5 -52.5t-35.5 -152.5q5 -48 13.5 -76t23.5 -42t39 -17.5t60 -3.5zM547 547q25 0 24 -25l-14 -454q-3 -112 -16 -188t-37 -124.5t-58.5 -73t-81.5 -32.5q3 -16 -10 -32l-104 -133
q-12 -17 -30 -17h-16q-14 0 -20.5 8.5t-1.5 20.5l49 120q7 15 4 32q-44 5 -86 18q-20 6 -20 27v108q0 14 8 18.5t21 -1.5q32 -14 64 -20.5t64 -6.5q72 0 112 51.5t57 166.5q2 14 4 26t1.5 18.5t-5 6.5t-15.5 -10q-25 -23 -61 -37t-82 -14q-50 0 -91.5 20t-71 56.5
t-45.5 88.5t-16 115t16 115t45.5 88.5t71 56.5t91.5 20q98 0 151 -62q11 -13 19 -11.5t10 18.5l2 21q1 21 26 21h42z" />
    <glyph glyph-name="Hbar" unicode="&#x126;" horiz-adv-x="1142" 
d="M373 593v-157q0 -29 28 -29h342q30 0 30 29v157h-400zM1054 667q15 0 15 -15v-44q0 -15 -15 -15h-156l7 -565q0 -28 -28 -28h-76q-28 0 -28 28v189q0 29 -30 29h-342q-28 0 -28 -29v-189q0 -28 -30 -28h-75q-31 0 -28 28l7 565h-159q-15 0 -15 15v44q0 15 15 15h160
l2 164q0 29 30 29h63q30 0 30 -29v-164h400v164q0 29 28 29h65q29 0 29 -29l2 -164h157z" />
    <glyph glyph-name="hbar" unicode="&#x127;" horiz-adv-x="693" 
d="M620 25q1 -25 -24 -25h-64q-25 0 -24 25l14 302q2 47 -5.5 78.5t-23 51t-39 27.5t-53.5 8q-37 0 -66.5 -13.5t-50 -38t-31 -58t-9.5 -73.5l9 -284q1 -25 -24 -25h-80q-25 0 -24 25l28 595h-80l15 60h68l7 156q1 24 25 24h41q24 0 24 -25l-4 -155h159l10 -60h-170l-3 -113
q-1 -17 7 -19.5t20 10.5q59 62 149 62q94 0 140.5 -57.5t49.5 -172.5z" />
    <glyph glyph-name="Itilde" unicode="&#x128;" horiz-adv-x="361" 
d="M74 29q27 103 48 210t29 211.5t-0.5 204t-40.5 189.5q-4 11 6 18.5t24 7.5h97q14 0 22 -8t6 -22q-8 -51 -13.5 -121t-7.5 -149t-1 -160.5t6 -154.5t14 -132t23 -92q6 -15 -3.5 -23t-23.5 -8h-157q-15 0 -23.5 7t-4.5 22zM186 1129q-36 50 -63.5 42.5t-33.5 -58.5
q-2 -14 -15 -14h-32q-15 0 -14 16q3 46 19 75.5t39 41.5t50.5 6t53.5 -31l28 -27q30 -29 49 -17.5t21 59.5q1 15 15 15h32q15 0 14 -16q-3 -47 -20 -79t-41 -46t-51 -7t-51 40z" />
    <glyph glyph-name="itilde" unicode="&#x129;" horiz-adv-x="287" 
d="M73 20q9 62 16.5 119.5t12 116.5t5.5 123t-3 141q-1 10 6 16t19 6h42q12 0 19 -6.5t5 -18.5q-6 -57 -9.5 -122.5t-2 -131.5t8.5 -128.5t21 -113.5q4 -13 -3.5 -19.5t-19.5 -6.5h-93q-27 0 -24 25zM151 816q-36 50 -63.5 42.5t-33.5 -58.5q-2 -14 -15 -14h-32
q-15 0 -14 16q3 46 19 75.5t39 41.5t50.5 6t53.5 -31l28 -27q30 -29 49 -17.5t21 59.5q1 15 15 15h32q15 0 14 -16q-3 -47 -20 -79t-41 -46t-51 -7t-51 40z" />
    <glyph glyph-name="Imacron" unicode="&#x12a;" horiz-adv-x="361" 
d="M74 29q-4 -15 4.5 -22t23.5 -7h157q14 0 23.5 8t3.5 23q-14 33 -23 92t-14 132t-6 154.5t1 160.5t7.5 149t13.5 121q2 14 -6 22t-22 8h-97q-14 0 -24 -7.5t-6 -18.5q32 -90 40.5 -189.5t0.5 -204t-29 -211.5t-48 -210zM26 1017q0 15 15 15h289q15 0 15 -15v-71
q0 -15 -15 -15h-289q-15 0 -15 15v71z" />
    <glyph glyph-name="imacron" unicode="&#x12b;" horiz-adv-x="287" 
d="M73 20q-3 -25 24 -25h93q12 0 19.5 6.5t3.5 19.5q-14 51 -21 113.5t-8.5 128.5t2 131.5t9.5 122.5q2 12 -5 18.5t-19 6.5h-42q-12 0 -19 -6t-6 -16q4 -77 3 -141t-5.5 -123t-12 -116.5t-16.5 -119.5zM-9 704q0 15 15 15h289q15 0 15 -15v-71q0 -15 -15 -15h-289
q-15 0 -15 15v71z" />
    <glyph glyph-name="Iogonek" unicode="&#x12e;" horiz-adv-x="361" 
d="M292 -164q14 -14 -5 -21q-63 -25 -110 -18t-70 34t-18.5 70t43.5 90q6 9 18 9h-48q-15 0 -23.5 7t-4.5 22q27 103 48 210t29 211.5t-0.5 204t-40.5 189.5q-4 11 6 18.5t24 7.5h97q14 0 22 -8t6 -22q-8 -51 -13.5 -121t-7.5 -149t-1 -160.5t6 -154.5t14 -132t23 -92
q6 -15 -3.5 -23t-23.5 -8h-83q9 0 11.5 -5.5t-2.5 -13.5q-27 -42 -32 -70t5.5 -42t34 -14.5t53.5 12.5q12 6 21 -4z" />
    <glyph glyph-name="iogonek" unicode="&#x12f;" horiz-adv-x="287" 
d="M263 -149q14 -14 -5 -21q-62 -24 -108 -18.5t-69.5 31t-21.5 66t36 86.5q-25 1 -22 25q9 62 16.5 119.5t12 116.5t5.5 123t-3 141q-1 10 6 16t19 6h42q12 0 19 -6.5t5 -18.5q-6 -57 -9.5 -122.5t-2 -131.5t8.5 -128.5t21 -113.5q4 -13 -3.5 -19.5t-19.5 -6.5h-35
q-26 -41 -31 -68.5t5.5 -42t34 -15t53.5 12.5q12 6 21 -4zM117 655q-15 0 -15 15l2 73q0 15 15 15l66 1q15 0 15 -15l2 -74q0 -15 -15 -15h-70z" />
    <glyph glyph-name="Idotaccent" unicode="&#x130;" horiz-adv-x="361" 
d="M74 29q27 103 48 210t29 211.5t-0.5 204t-40.5 189.5q-4 11 6 18.5t24 7.5h97q14 0 22 -8t6 -22q-8 -51 -13.5 -121t-7.5 -149t-1 -160.5t6 -154.5t14 -132t23 -92q6 -15 -3.5 -23t-23.5 -8h-157q-15 0 -23.5 7t-4.5 22zM139 1056q0 15 15 15l66 1q15 0 15 -15l2 -74
q0 -15 -15 -15h-70q-15 0 -15 15z" />
    <glyph glyph-name="dotlessi" unicode="&#x131;" horiz-adv-x="287" 
d="M73 20q9 62 16.5 119.5t12 116.5t5.5 123t-3 141q-1 10 6 16t19 6h42q12 0 19 -6.5t5 -18.5q-6 -57 -9.5 -122.5t-2 -131.5t8.5 -128.5t21 -113.5q4 -13 -3.5 -19.5t-19.5 -6.5h-93q-27 0 -24 25z" />
    <glyph glyph-name="IJ" unicode="&#x132;" horiz-adv-x="835" 
d="M74 29q27 103 48 210t29 211.5t-0.5 204t-40.5 189.5q-4 11 6 18.5t24 7.5h97q14 0 22 -8t6 -22q-8 -51 -13.5 -121t-7.5 -149t-1 -160.5t6 -154.5t14 -132t23 -92q6 -15 -3.5 -23t-23.5 -8h-157q-15 0 -23.5 7t-4.5 22zM640 870q2 29 30 28l65 -5q28 -2 27 -30l-36 -788
q-3 -78 -20.5 -132t-50.5 -87.5t-82.5 -49.5t-117.5 -17l-40 4q-26 3 -29 30l-1 130q0 32 32 26l10 -2q10 -2 17 -3.5t18 0.5q34 4 58 15t40 26t24 32t9 35z" />
    <glyph glyph-name="ij" unicode="&#x133;" horiz-adv-x="775" 
d="M73 20q9 62 16.5 119.5t12 116.5t5.5 123t-3 141q-1 10 6 16t19 6h42q12 0 19 -6.5t5 -18.5q-6 -57 -9.5 -122.5t-2 -131.5t8.5 -128.5t21 -113.5q4 -13 -3.5 -19.5t-19.5 -6.5h-93q-27 0 -24 25zM577 521q0 24 25 24l77 -2q24 0 23 -24l-43 -591q-4 -53 -27 -103
t-58 -89t-78 -63t-87 -24h-25q-24 0 -24 25l2 125q0 24 25 24h14q25 0 54.5 9.5t54.5 34.5t42 68.5t18 110.5zM99 743q0 15 15 15l66 1q15 0 15 -15l2 -74q0 -15 -15 -15h-70q-15 0 -15 15zM602 736q1 24 24 24h33q23 0 25 -24l3 -65q1 -25 -24 -25h-40q-25 0 -24 25z" />
    <glyph glyph-name="Kcommaaccent" unicode="&#x136;" horiz-adv-x="814" 
d="M243 -82q-4 25 26 25h77q13 0 18.5 -6t7.5 -19l10 -66q3 -16 -10 -32l-104 -133q-12 -17 -30 -17h-16q-14 0 -20.5 8.5t-1.5 20.5l49 120q7 15 4 32zM95 832q1 28 29 28h59q30 0 28 -29l-9 -285q-1 -20 9.5 -24.5t25.5 9.5l334 315q9 8 17 11t20 3h76q20 0 24.5 -10.5
t-10.5 -24.5l-368 -346q-20 -20 0 -40l401 -404q14 -14 9.5 -24.5t-24.5 -10.5h-202q-21 0 -34 18l-242 343q-12 17 -24 12.5t-10 -25.5l18 -319q2 -29 -27 -29h-94q-30 0 -28 29z" />
    <glyph glyph-name="kcommaaccent" unicode="&#x137;" horiz-adv-x="624" 
d="M214 -51q-4 25 26 25h77q13 0 18.5 -6t7.5 -19l10 -66q3 -16 -10 -32l-104 -133q-12 -17 -30 -17h-16q-14 0 -20.5 8.5t-1.5 20.5l49 120q7 15 4 32zM92 736q0 24 24 24h42q24 0 24 -25l-4 -358q0 -17 9.5 -20.5t20.5 9.5l143 167q11 14 30 14h58q16 0 20 -8.5t-6 -21.5
l-168 -208q-13 -18 3 -34l254 -245q12 -11 8 -20.5t-21 -9.5h-124q-18 0 -29 14l-166 204q-11 14 -20.5 10t-8.5 -21l10 -182q1 -25 -23 -25h-70q-25 0 -25 25z" />
    <glyph glyph-name="Lacute" unicode="&#x139;" horiz-adv-x="708" 
d="M84 832q0 28 29 28h59q30 0 30 -28l-7 -598q0 -30 28 -30h384q30 0 28 -29l-8 -148q-2 -27 -29 -27h-497q-28 0 -28 28zM370 1172q8 0 11.5 -5t-1.5 -13l-85 -154q-6 -11 -18 -11h-98q-22 0 -9 18l117 156q7 9 18 9h65z" />
    <glyph glyph-name="lacute" unicode="&#x13a;" horiz-adv-x="380" 
d="M93 25q-8 99 -4.5 194t7 182.5t1 166.5t-22.5 146q-4 12 5 18t20 6h52q12 0 16.5 -6.5t6.5 -18.5q7 -54 7.5 -125t-0.5 -147t1.5 -152.5t14.5 -142.5q2 -13 7 -19t17 -6h61q25 0 25 -25v-72q0 -24 -25 -24h-165q-23 0 -24 25zM329 1128q8 0 11.5 -5t-1.5 -13l-85 -154
q-6 -11 -18 -11h-98q-22 0 -9 18l117 156q7 9 18 9h65z" />
    <glyph glyph-name="Lcommaaccent" unicode="&#x13b;" horiz-adv-x="708" 
d="M226 -79q-4 25 26 25h77q13 0 18.5 -6t7.5 -19l10 -66q3 -16 -10 -32l-104 -133q-12 -17 -30 -17h-16q-14 0 -20.5 8.5t-1.5 20.5l49 120q7 15 4 32zM84 832q0 28 29 28h59q30 0 30 -28l-7 -598q0 -30 28 -30h384q30 0 28 -29l-8 -148q-2 -27 -29 -27h-497q-28 0 -28 28z
" />
    <glyph glyph-name="lcommaaccent" unicode="&#x13c;" horiz-adv-x="380" 
d="M88 -59q-4 25 26 25h77q13 0 18.5 -6t7.5 -19l10 -66q3 -16 -10 -32l-104 -133q-12 -17 -30 -17h-16q-14 0 -20.5 8.5t-1.5 20.5l49 120q7 15 4 32zM93 25q-8 99 -4.5 194t7 182.5t1 166.5t-22.5 146q-4 12 5 18t20 6h52q12 0 16.5 -6.5t6.5 -18.5q7 -54 7.5 -125
t-0.5 -147t1.5 -152.5t14.5 -142.5q2 -13 7 -19t17 -6h61q25 0 25 -25v-72q0 -24 -25 -24h-165q-23 0 -24 25z" />
    <glyph glyph-name="Lcaron" unicode="&#x13d;" horiz-adv-x="708" 
d="M360 780q0 15 15 15h97q15 0 15 -15v-79q0 -11 -4 -19l-88 -172q-6 -11 -18 -11h-49q-18 0 -13 17l43 166q1 5 1.5 9t0.5 9v80zM84 832q0 28 29 28h59q30 0 30 -28l-7 -598q0 -30 28 -30h384q30 0 28 -29l-8 -148q-2 -27 -29 -27h-497q-28 0 -28 28z" />
    <glyph glyph-name="lcaron" unicode="&#x13e;" horiz-adv-x="380" 
d="M93 25q-8 99 -4.5 194t7 182.5t1 166.5t-22.5 146q-4 12 5 18t20 6h52q12 0 16.5 -6.5t6.5 -18.5q7 -54 7.5 -125t-0.5 -147t1.5 -152.5t14.5 -142.5q2 -13 7 -19t17 -6h61q25 0 25 -25v-72q0 -24 -25 -24h-165q-23 0 -24 25zM263 854q0 15 15 15h97q15 0 15 -15v-79
q0 -11 -4 -19l-88 -172q-6 -11 -18 -11h-49q-18 0 -13 17l43 166q1 5 1.5 9t0.5 9v80z" />
    <glyph glyph-name="Ldot" unicode="&#x13f;" horiz-adv-x="708" 
d="M425 285h-103v124h103v-124zM84 832q0 28 29 28h59q30 0 30 -28l-7 -598q0 -30 28 -30h384q30 0 28 -29l-8 -148q-2 -27 -29 -27h-497q-28 0 -28 28z" />
    <glyph glyph-name="ldot" unicode="&#x140;" horiz-adv-x="380" 
d="M344 315h-103v124h103v-124zM93 25q-8 99 -4.5 194t7 182.5t1 166.5t-22.5 146q-4 12 5 18t20 6h52q12 0 16.5 -6.5t6.5 -18.5q7 -54 7.5 -125t-0.5 -147t1.5 -152.5t14.5 -142.5q2 -13 7 -19t17 -6h61q25 0 25 -25v-72q0 -24 -25 -24h-165q-23 0 -24 25z" />
    <glyph glyph-name="Lslash" unicode="&#x141;" horiz-adv-x="867" 
d="M766 204q30 0 28 -29l-8 -148q-2 -27 -29 -27h-497q-28 0 -28 28l4 322l-118 -74q-12 -7 -21 5l-21 34q-8 12 5 21l157 98l5 398q0 28 29 28h59q30 0 30 -28l-4 -323l122 76q13 7 21 -5l21 -34q9 -12 -4 -21l-161 -100l-2 -191q0 -30 28 -30h384z" />
    <glyph glyph-name="lslash" unicode="&#x142;" horiz-adv-x="597" 
d="M521 542q9 -14 -4 -21l-181 -113q1 -60 4 -116.5t8 -106t12.5 -89.5t17.5 -65q6 -15 -3.5 -23t-23.5 -8h-157q-15 0 -23.5 7t-4.5 22q20 78 36.5 156.5t27.5 156.5l-112 -70q-12 -7 -21 5l-21 34q-8 12 5 21l160 100q9 109 2 212.5t-41 199.5q-4 11 6 18.5t24 7.5h97
q14 0 22 -8t6 -22q-9 -64 -14.5 -156.5t-7.5 -192.5l144 90q13 7 21 -5z" />
    <glyph glyph-name="Nacute" unicode="&#x143;" horiz-adv-x="820" 
d="M106 814q2 29 29 29h94q23 0 34 -21l326 -598q11 -20 22.5 -16.5t12.5 24.5l15 600q0 28 29 28h50q29 0 29 -28v-804q0 -28 -29 -28h-117q-24 0 -34 21l-332 628q-5 10 -11.5 14t-11.5 2.5t-8.5 -8t-2.5 -17.5l41 -611q2 -29 -28 -29h-113q-30 0 -28 29zM598 1172
q8 0 11.5 -5t-1.5 -13l-85 -154q-6 -11 -18 -11h-98q-22 0 -9 18l117 156q7 9 18 9h65z" />
    <glyph glyph-name="nacute" unicode="&#x144;" horiz-adv-x="656" 
d="M583 25q3 -25 -24 -25h-98q-25 0 -24 25l18 307q9 155 -111 155q-84 0 -126.5 -46t-35.5 -127l24 -289q1 -25 -24 -25h-85q-24 0 -24 25l13 503q0 24 25 24h42q24 0 24 -25v-4q0 -16 8.5 -20t20.5 5q29 20 66 36t82 16q94 0 139 -57.5t57 -172.5zM488 990q8 0 11.5 -5
t-1.5 -13l-85 -154q-6 -11 -18 -11h-98q-22 0 -9 18l117 156q7 9 18 9h65z" />
    <glyph glyph-name="Ncommaaccent" unicode="&#x145;" horiz-adv-x="820" 
d="M270 -57q-4 25 26 25h77q13 0 18.5 -6t7.5 -19l10 -66q3 -16 -10 -32l-104 -133q-12 -17 -30 -17h-16q-14 0 -20.5 8.5t-1.5 20.5l49 120q7 15 4 32zM106 814q2 29 29 29h94q23 0 34 -21l326 -598q11 -20 22.5 -16.5t12.5 24.5l15 600q0 28 29 28h50q29 0 29 -28v-804
q0 -28 -29 -28h-117q-24 0 -34 21l-332 628q-5 10 -11.5 14t-11.5 2.5t-8.5 -8t-2.5 -17.5l41 -611q2 -29 -28 -29h-113q-30 0 -28 29z" />
    <glyph glyph-name="ncommaaccent" unicode="&#x146;" horiz-adv-x="656" 
d="M230 -51q-4 25 26 25h77q13 0 18.5 -6t7.5 -19l10 -66q3 -16 -10 -32l-104 -133q-12 -17 -30 -17h-16q-14 0 -20.5 8.5t-1.5 20.5l49 120q7 15 4 32zM583 25q3 -25 -24 -25h-98q-25 0 -24 25l18 307q9 155 -111 155q-84 0 -126.5 -46t-35.5 -127l24 -289q1 -25 -24 -25
h-85q-24 0 -24 25l13 503q0 24 25 24h42q24 0 24 -25v-4q0 -16 8.5 -20t20.5 5q29 20 66 36t82 16q94 0 139 -57.5t57 -172.5z" />
    <glyph glyph-name="Ncaron" unicode="&#x147;" horiz-adv-x="820" 
d="M106 814q2 29 29 29h94q23 0 34 -21l326 -598q11 -20 22.5 -16.5t12.5 24.5l15 600q0 28 29 28h50q29 0 29 -28v-804q0 -28 -29 -28h-117q-24 0 -34 21l-332 628q-5 10 -11.5 14t-11.5 2.5t-8.5 -8t-2.5 -17.5l41 -611q2 -29 -28 -29h-113q-30 0 -28 29zM268 964
q-13 18 9 18h65q12 0 18 -10l58 -93q10 -17 21 0l58 93q6 10 18 10h76q10 0 13 -5t-4 -13l-128 -157q-8 -9 -18 -9h-50q-11 0 -18 9z" />
    <glyph glyph-name="ncaron" unicode="&#x148;" horiz-adv-x="656" 
d="M583 25q3 -25 -24 -25h-98q-25 0 -24 25l18 307q9 155 -111 155q-84 0 -126.5 -46t-35.5 -127l24 -289q1 -25 -24 -25h-85q-24 0 -24 25l13 503q0 24 25 24h42q24 0 24 -25v-4q0 -16 8.5 -20t20.5 5q29 20 66 36t82 16q94 0 139 -57.5t57 -172.5zM158 782q-13 18 9 18h65
q12 0 18 -10l58 -93q10 -17 21 0l58 93q6 10 18 10h76q10 0 13 -5t-4 -13l-128 -157q-8 -9 -18 -9h-50q-11 0 -18 9z" />
    <glyph glyph-name="Eng" unicode="&#x14a;" horiz-adv-x="820" 
d="M747 23q0 -4 -2 -10l-65 -132l-8 -16l-40 -69q-7 -12 -20 -6q-15 6 -42.5 13.5t-56.5 16t-55 18.5t-39 21q-10 10 1 21q39 31 63.5 45t40 24t25.5 24t19 46l-1 2l-332 628q-5 10 -11.5 14t-11.5 2.5t-8.5 -8t-2.5 -17.5l41 -611q2 -29 -28 -29h-113q-30 0 -28 29l33 785
q2 29 29 29h94q23 0 34 -21l326 -598q11 -20 22.5 -16.5t12.5 24.5l15 600q0 28 29 28h50q29 0 29 -28v-804v-5z" />
    <glyph glyph-name="eng" unicode="&#x14b;" horiz-adv-x="656" 
d="M583 18q0 -13 -8 -25.5t-31.5 -31t-66.5 -46t-113 -70.5q-6 -2 -7 2l-46 74q-3 5 2 7l56 34q48 28 69 51q-1 3 -1 12l18 307q9 155 -111 155q-84 0 -126.5 -46t-35.5 -127l24 -289q1 -25 -24 -25h-85q-24 0 -24 25l13 503q0 24 25 24h42q24 0 24 -25v-4q0 -16 8.5 -20
t20.5 5q29 20 66 36t82 16q94 0 139 -57.5t57 -172.5l29 -271l3 -22l1 -14v-5z" />
    <glyph glyph-name="Omacron" unicode="&#x14c;" horiz-adv-x="932" 
d="M466 784q63 0 114 -24.5t87 -70t55 -111t19 -146.5q0 -67 -19 -110.5t-55 -69t-87 -35.5t-114 -10t-114 10t-87 35.5t-55.5 69t-19.5 110.5q0 81 19.5 146.5t55.5 111t87 70t114 24.5zM466 878q-82 0 -153.5 -31.5t-125 -90t-84 -140.5t-30.5 -184t30.5 -184.5t84 -140.5
t125 -89.5t153.5 -31.5t153.5 31.5t124.5 90t84 140.5t31 184t-31 184t-84 140.5t-124.5 90t-153.5 31.5zM304 1059q0 15 15 15h289q15 0 15 -15v-71q0 -15 -15 -15h-289q-15 0 -15 15v71z" />
    <glyph glyph-name="omacron" unicode="&#x14d;" horiz-adv-x="648" 
d="M324 494q72 0 114 -55.5t42 -149.5q0 -48 -11 -77t-31 -44.5t-49 -21t-65 -5.5t-65 5t-49.5 21t-31 45t-10.5 77q0 97 42 151t114 54zM324 560q-59 0 -105.5 -19.5t-79 -56.5t-49.5 -90.5t-17 -120.5q0 -68 17 -121t49.5 -90t79 -56.5t105.5 -19.5q118 0 184.5 75.5
t66.5 211.5t-66.5 211.5t-184.5 75.5zM162 704q0 15 15 15h289q15 0 15 -15v-71q0 -15 -15 -15h-289q-15 0 -15 15v71z" />
    <glyph glyph-name="Ohungarumlaut" unicode="&#x150;" horiz-adv-x="932" 
d="M466 784q-63 0 -114 -24.5t-87 -70t-55.5 -111t-19.5 -146.5q0 -67 19.5 -110.5t55.5 -69t87 -35.5t114 -10t114 10t87 35.5t55 69t19 110.5q0 81 -19 146.5t-55 111t-87 70t-114 24.5zM466 878q82 0 153.5 -31.5t124.5 -90t84 -140.5t31 -184t-31 -184t-84 -140.5
t-124.5 -90t-153.5 -31.5t-153.5 31.5t-125 89.5t-84 140.5t-30.5 184.5t30.5 184t84 140.5t125 90t153.5 31.5zM544 1144q5 11 18 11h53q21 0 10 -18l-103 -156q-6 -10 -18 -10h-34q-8 0 -11.5 5t1.5 13zM382 1144q5 11 17 11h50q9 0 12 -5t-2 -13l-92 -156q-6 -10 -18 -10
h-35q-20 0 -11 18z" />
    <glyph glyph-name="ohungarumlaut" unicode="&#x151;" horiz-adv-x="648" 
d="M324 494q-72 0 -114 -54t-42 -151q0 -48 10.5 -77t31 -45t49.5 -21t65 -5t65 5.5t49 21t31 44.5t11 77q0 94 -42 149.5t-114 55.5zM324 560q118 0 184.5 -75.5t66.5 -211.5t-66.5 -211.5t-184.5 -75.5q-59 0 -105.5 19.5t-79 56.5t-49.5 90t-17 121q0 67 17 120.5
t49.5 90.5t79 56.5t105.5 19.5zM402 789q5 11 18 11h53q21 0 10 -18l-103 -156q-6 -10 -18 -10h-34q-8 0 -11.5 5t1.5 13zM240 789q5 11 17 11h50q9 0 12 -5t-2 -13l-92 -156q-6 -10 -18 -10h-35q-20 0 -11 18z" />
    <glyph glyph-name="OE" unicode="&#x152;" horiz-adv-x="1345" 
d="M476 204q31 0 65.5 4.5t67 12.5t61 18.5t48.5 23.5v460l-9 5q-54 30 -111.5 43.5t-121.5 13.5q-147 0 -215 -90.5t-65 -262.5q1 -71 13.5 -115.5t44 -69.5t85 -34t137.5 -9zM1244 204q28 0 28 -28v-148q0 -28 -28 -28h-497q-29 0 -29 28v23q-45 -37 -109 -51t-133 -14
q-106 0 -182 31t-125 88.5t-72.5 140t-23.5 186.5q0 103 26.5 186t78 140.5t126.5 88.5t172 31q67 0 128 -7t115 -30q4 19 28 19h486q29 0 29 -28v-21q0 -29 -29 -29h-370q-28 0 -28 -28v-219q0 -30 28 -30h353q28 0 28 -28v-40q0 -30 -28 -30h-353q-28 0 -28 -28v-145
q0 -30 28 -30h381z" />
    <glyph glyph-name="oe" unicode="&#x153;" horiz-adv-x="1061" 
d="M324 499q-72 0 -114 -52t-42 -143t41.5 -142.5t114.5 -51.5q72 0 114 51.5t42 142.5t-42 143t-114 52zM898 391q0 15 -10.5 35t-30 38.5t-46.5 31t-61 12.5q-37 0 -67 -12t-52 -30t-35.5 -38.5t-17.5 -37.5zM988 325h-413q3 -83 17 -130t39 -70t59.5 -28.5t79.5 -5.5
q102 0 197 51v-114q-96 -42 -202 -42q-156 0 -236 107q-68 -107 -205 -107q-118 0 -184.5 75.5t-66.5 211.5t66.5 211.5t184.5 75.5q138 0 204 -107q38 54 94.5 80.5t126.5 26.5q55 0 99.5 -20.5t75.5 -50.5t47.5 -63t16.5 -57v-44z" />
    <glyph glyph-name="Racute" unicode="&#x154;" horiz-adv-x="827" 
d="M242 782q-29 0 -30 -28l-11 -222q-1 -28 29 -28h129q33 0 65.5 7.5t58 22t41 35.5t15.5 47q0 49 -15.5 81t-41 51t-58 26.5t-65.5 7.5h-117zM520 391q30 -20 64.5 -58t64.5 -98l100 -201q8 -15 2.5 -24.5t-22.5 -9.5h-115q-25 0 -34 22l-77 199q-17 45 -36.5 72.5t-43 43
t-51.5 21t-62 5.5h-69q-30 0 -29 -28l24 -307q2 -28 -28 -28h-107q-28 0 -28 28l12 804q0 28 28 28h235q130 0 202.5 -61.5t72.5 -186.5q0 -72 -27 -121.5t-75 -75.5q-13 -7 -13 -11.5t12 -12.5zM552 1172q8 0 11.5 -5t-1.5 -13l-85 -154q-6 -11 -18 -11h-98q-22 0 -9 18
l117 156q7 9 18 9h65z" />
    <glyph glyph-name="racute" unicode="&#x155;" horiz-adv-x="474" 
d="M401 482q0 -14 -6.5 -17.5t-20.5 -1.5q-9 2 -18.5 2h-22.5q-38 0 -64.5 -7t-43.5 -24t-25 -46t-8 -73l26 -290q3 -25 -24 -25h-98q-27 0 -22 27q13 74 20.5 131t11.5 111t4 112.5t-2 135.5q0 25 24 25h34q24 0 24 -20q0 -15 8.5 -19t20.5 4q23 15 59.5 29t81.5 14h9.5
t10.5 -1q20 -3 20 -26zM369 990q8 0 11.5 -5t-1.5 -13l-85 -154q-6 -11 -18 -11h-98q-22 0 -9 18l117 156q7 9 18 9h65z" />
    <glyph glyph-name="Rcommaaccent" unicode="&#x156;" horiz-adv-x="827" 
d="M254 -21q-4 25 26 25h77q13 0 18.5 -6t7.5 -19l10 -66q3 -16 -10 -32l-104 -133q-12 -17 -30 -17h-16q-14 0 -20.5 8.5t-1.5 20.5l49 120q7 15 4 32zM242 782q-29 0 -30 -28l-11 -222q-1 -28 29 -28h129q33 0 65.5 7.5t58 22t41 35.5t15.5 47q0 49 -15.5 81t-41 51
t-58 26.5t-65.5 7.5h-117zM520 391q30 -20 64.5 -58t64.5 -98l100 -201q8 -15 2.5 -24.5t-22.5 -9.5h-115q-25 0 -34 22l-77 199q-17 45 -36.5 72.5t-43 43t-51.5 21t-62 5.5h-69q-30 0 -29 -28l24 -307q2 -28 -28 -28h-107q-28 0 -28 28l12 804q0 28 28 28h235
q130 0 202.5 -61.5t72.5 -186.5q0 -72 -27 -121.5t-75 -75.5q-13 -7 -13 -11.5t12 -12.5z" />
    <glyph glyph-name="rcommaaccent" unicode="&#x157;" horiz-adv-x="474" 
d="M67 -48q-4 25 26 25h77q13 0 18.5 -6t7.5 -19l10 -66q3 -16 -10 -32l-104 -133q-12 -17 -30 -17h-16q-14 0 -20.5 8.5t-1.5 20.5l49 120q7 15 4 32zM401 482q0 -14 -6.5 -17.5t-20.5 -1.5q-9 2 -18.5 2h-22.5q-38 0 -64.5 -7t-43.5 -24t-25 -46t-8 -73l26 -290
q3 -25 -24 -25h-98q-27 0 -22 27q13 74 20.5 131t11.5 111t4 112.5t-2 135.5q0 25 24 25h34q24 0 24 -20q0 -15 8.5 -19t20.5 4q23 15 59.5 29t81.5 14h9.5t10.5 -1q20 -3 20 -26z" />
    <glyph glyph-name="Rcaron" unicode="&#x158;" horiz-adv-x="827" 
d="M359 504q33 0 65.5 7.5t58 22t41 35.5t15.5 47q0 49 -15.5 81t-41 51t-58 26.5t-65.5 7.5h-117q-29 0 -30 -28l-11 -222q-1 -28 29 -28h129zM749 34q8 -15 2.5 -24.5t-22.5 -9.5h-115q-25 0 -34 22l-77 199q-17 45 -36.5 72.5t-43 43t-51.5 21t-62 5.5h-69q-30 0 -29 -28
l24 -307q2 -28 -28 -28h-107q-28 0 -28 28l12 804q0 28 28 28h187l-78 104q-13 18 9 18h65q12 0 18 -10l58 -93q10 -17 21 0l58 93q6 10 18 10h76q10 0 13 -5t-4 -13l-96 -118q79 -22 122 -79.5t43 -154.5q0 -72 -27 -121.5t-75 -75.5q-13 -7 -13 -11.5t12 -12.5
q30 -20 64.5 -58t64.5 -98z" />
    <glyph glyph-name="rcaron" unicode="&#x159;" horiz-adv-x="474" 
d="M401 482q0 -14 -6.5 -17.5t-20.5 -1.5q-9 2 -18.5 2h-22.5q-38 0 -64.5 -7t-43.5 -24t-25 -46t-8 -73l26 -290q3 -25 -24 -25h-98q-27 0 -22 27q13 74 20.5 131t11.5 111t4 112.5t-2 135.5q0 25 24 25h34q24 0 24 -20q0 -15 8.5 -19t20.5 4q23 15 59.5 29t81.5 14h9.5
t10.5 -1q20 -3 20 -26zM39 782q-13 18 9 18h65q12 0 18 -10l58 -93q10 -17 21 0l58 93q6 10 18 10h76q10 0 13 -5t-4 -13l-128 -157q-8 -9 -18 -9h-50q-11 0 -18 9z" />
    <glyph glyph-name="Sacute" unicode="&#x15a;" horiz-adv-x="773" 
d="M648 758q-4 -17 -17.5 -23t-28.5 1q-56 24 -100 36.5t-92 12.5q-97 0 -148 -37t-51 -106q0 -28 8 -49t26.5 -36.5t50 -27t79.5 -20.5l71 -14q132 -26 193 -87.5t61 -167.5q0 -127 -82.5 -190.5t-246.5 -63.5q-29 0 -62.5 2.5t-69.5 8t-72 14.5t-69 21q-27 9 -25 33
l12 144q3 37 35 20q31 -16 65 -27.5t68.5 -19t67 -11t61.5 -3.5q55 0 89 11t53 27.5t25 34t6 31.5q0 17 -6 33.5t-21.5 31t-43.5 26.5t-72 21l-71 14q-130 25 -189 81t-59 154q0 57 21 102.5t60 77t95.5 48.5t127.5 17q55 0 117 -9t122 -28q13 -2 20 -10.5t4 -20.5z
M564 1291q8 0 11.5 -5t-1.5 -13l-85 -154q-6 -11 -18 -11h-98q-22 0 -9 18l117 156q7 9 18 9h65z" />
    <glyph glyph-name="sacute" unicode="&#x15b;" horiz-adv-x="564" 
d="M462 486q0 -14 -7.5 -18.5t-20.5 0.5q-63 26 -136 26q-69 0 -104 -22.5t-35 -64.5q0 -18 6 -31.5t20.5 -24t38.5 -19t60 -16.5l31 -7q48 -11 81.5 -24.5t54.5 -32.5t30.5 -44t9.5 -59q0 -78 -60 -120.5t-166 -42.5q-81 0 -171 28q-21 6 -21 27v98q0 14 8 19t21 -1
q87 -38 165 -38q44 0 65 16t22 36.5t-17 40t-52 27.5l-50 11q-84 19 -121 52t-37 97q0 78 54 119.5t156 41.5q90 0 155 -22q20 -8 20 -28v-24zM452 990q8 0 11.5 -5t-1.5 -13l-85 -154q-6 -11 -18 -11h-98q-22 0 -9 18l117 156q7 9 18 9h65z" />
    <glyph glyph-name="Scedilla" unicode="&#x15e;" horiz-adv-x="773" 
d="M700 240q0 -227 -266 -251l6 -6q39 -47 43.5 -90t-18.5 -70t-70 -34t-110 18q-8 3 -9.5 9t4.5 12l25 27q9 10 21 4q30 -13 53.5 -12.5t34 14.5t5.5 42t-32 70q-5 8 -3 13h-13q-29 0 -62.5 2.5t-69.5 8t-72 14.5t-69 21q-27 9 -25 33l12 144q3 37 35 20q31 -16 65 -27.5
t68.5 -19t67 -11t61.5 -3.5q55 0 89 11t53 27.5t25 34t6 31.5q0 17 -6 33.5t-21.5 31t-43.5 26.5t-72 21l-71 14q-130 25 -189 81t-59 154q0 57 21 102.5t60 77t95.5 48.5t127.5 17q55 0 117 -9t122 -28q13 -2 20 -10.5t4 -20.5l-12 -52q-4 -17 -17.5 -23t-28.5 1
q-56 24 -100 36.5t-92 12.5q-97 0 -148 -37t-51 -106q0 -28 8 -49t26.5 -36.5t50 -27t79.5 -20.5l71 -14q132 -26 193 -87.5t61 -167.5z" />
    <glyph glyph-name="scedilla" unicode="&#x15f;" horiz-adv-x="564" 
d="M491 149q0 -66 -42.5 -106t-120.5 -52q39 -47 43.5 -90t-18.5 -70t-70 -34t-110 18q-19 7 -5 21l25 27q9 10 21 4q30 -13 53 -12.5t33 14.5t5 42t-30 70l-3 5h-7q-81 0 -171 28q-21 6 -21 27v98q0 14 8 19t21 -1q87 -38 165 -38q44 0 65 16t22 36.5t-17 40t-52 27.5
l-50 11q-84 19 -121 52t-37 97q0 78 54 119.5t156 41.5q90 0 155 -22q20 -8 20 -28v-24q0 -14 -7.5 -18.5t-20.5 0.5q-63 26 -136 26q-69 0 -104 -22.5t-35 -64.5q0 -18 6 -31.5t20.5 -24t38.5 -19t60 -16.5l31 -7q48 -11 81.5 -24.5t54.5 -32.5t30.5 -44t9.5 -59z" />
    <glyph glyph-name="Scaron" unicode="&#x160;" horiz-adv-x="773" 
d="M648 758q-4 -17 -17.5 -23t-28.5 1q-56 24 -100 36.5t-92 12.5q-97 0 -148 -37t-51 -106q0 -28 8 -49t26.5 -36.5t50 -27t79.5 -20.5l71 -14q132 -26 193 -87.5t61 -167.5q0 -127 -82.5 -190.5t-246.5 -63.5q-29 0 -62.5 2.5t-69.5 8t-72 14.5t-69 21q-27 9 -25 33
l12 144q3 37 35 20q31 -16 65 -27.5t68.5 -19t67 -11t61.5 -3.5q55 0 89 11t53 27.5t25 34t6 31.5q0 17 -6 33.5t-21.5 31t-43.5 26.5t-72 21l-71 14q-130 25 -189 81t-59 154q0 57 21 102.5t60 77t95.5 48.5t127.5 17q55 0 117 -9t122 -28q13 -2 20 -10.5t4 -20.5z
M234 1083q-13 18 9 18h65q12 0 18 -10l58 -93q10 -17 21 0l58 93q6 10 18 10h76q10 0 13 -5t-4 -13l-128 -157q-8 -9 -18 -9h-50q-11 0 -18 9z" />
    <glyph glyph-name="scaron" unicode="&#x161;" horiz-adv-x="564" 
d="M462 486q0 -14 -7.5 -18.5t-20.5 0.5q-63 26 -136 26q-69 0 -104 -22.5t-35 -64.5q0 -18 6 -31.5t20.5 -24t38.5 -19t60 -16.5l31 -7q48 -11 81.5 -24.5t54.5 -32.5t30.5 -44t9.5 -59q0 -78 -60 -120.5t-166 -42.5q-81 0 -171 28q-21 6 -21 27v98q0 14 8 19t21 -1
q87 -38 165 -38q44 0 65 16t22 36.5t-17 40t-52 27.5l-50 11q-84 19 -121 52t-37 97q0 78 54 119.5t156 41.5q90 0 155 -22q20 -8 20 -28v-24zM122 782q-13 18 9 18h65q12 0 18 -10l58 -93q10 -17 21 0l58 93q6 10 18 10h76q10 0 13 -5t-4 -13l-128 -157q-8 -9 -18 -9h-50
q-11 0 -18 9z" />
    <glyph glyph-name="Tcedilla" unicode="&#x162;" horiz-adv-x="875" 
d="M772 860q30 0 30 -28v-40q0 -31 -30 -29l-247 10q-30 2 -28 -30l28 -714q2 -29 -27 -29h-36q12 0 18 -9q39 -47 43.5 -90t-18.5 -70t-70 -34t-110 18q-8 3 -9.5 9t4.5 12l25 27q9 10 21 4q30 -13 53.5 -12.5t34 14.5t5.5 42t-32 70q-5 8 -2.5 13.5t11.5 5.5h-57
q-30 0 -28 29l27 714q2 32 -28 30l-247 -10q-30 -2 -30 29v40q0 28 29 28h670z" />
    <glyph glyph-name="tcedilla" unicode="&#x163;" horiz-adv-x="447" 
d="M318 0q12 0 18 -9q39 -47 43.5 -90t-18.5 -70t-70 -34t-110 18q-19 7 -5 21l25 27q9 10 21 4q30 -13 53.5 -12.5t34 14.5t5.5 42t-32 70q-5 8 -2.5 13.5t11.5 5.5h26zM214 683q25 0 24 -25l-3 -86q-1 -25 24 -25h77q24 0 24 -25v-21q0 -24 -24 -24h-78q-25 0 -25 -24
l-4 -214q-1 -45 -0.5 -68.5t8.5 -34t27.5 -11.5t57.5 -1h28q24 0 24 -25v-75q0 -24 -24 -24h-28q-66 0 -106 4t-61 22t-27 54t-3 100l13 273q1 24 -24 24h-20q-21 0 -21 24v21q0 25 24 25h18q23 0 25 24l3 88q1 24 25 24h46z" />
    <glyph glyph-name="Tcaron" unicode="&#x164;" horiz-adv-x="875" 
d="M73 832q0 28 29 28h670q30 0 30 -28v-40q0 -31 -30 -29l-247 10q-30 2 -28 -30l28 -714q2 -29 -27 -29h-119q-30 0 -28 29l27 714q2 32 -28 30l-247 -10q-30 -2 -30 29v40zM300 1072q-13 18 9 18h65q12 0 18 -10l58 -93q10 -17 21 0l58 93q6 10 18 10h76q10 0 13 -5
t-4 -13l-128 -157q-8 -9 -18 -9h-50q-11 0 -18 9z" />
    <glyph glyph-name="tcaron" unicode="&#x165;" horiz-adv-x="447" 
d="M214 683q25 0 24 -25l-3 -86q-1 -25 24 -25h77q24 0 24 -25v-21q0 -24 -24 -24h-78q-25 0 -25 -24l-4 -214q-1 -45 -0.5 -68.5t8.5 -34t27.5 -11.5t57.5 -1h28q24 0 24 -25v-75q0 -24 -24 -24h-28q-66 0 -106 4t-61 22t-27 54t-3 100l13 273q1 24 -24 24h-20
q-21 0 -21 24v21q0 25 24 25h18q23 0 25 24l3 88q1 24 25 24h46zM315 914q0 15 15 15h97q15 0 15 -15v-79q0 -11 -4 -19l-88 -172q-6 -11 -18 -11h-49q-18 0 -13 17l43 166q1 5 1.5 9t0.5 9v80z" />
    <glyph glyph-name="Tbar" unicode="&#x166;" horiz-adv-x="875" 
d="M73 792q0 -31 30 -29l247 10q30 2 28 -30l-27 -714q-2 -29 28 -29h119q29 0 27 29l-28 714q-2 32 28 30l247 -10q30 -2 30 29v40q0 28 -30 28h-670q-29 0 -29 -28v-40zM290 994q0 15 15 15h289q15 0 15 -15v-71q0 -15 -15 -15h-289q-15 0 -15 15v71z" />
    <glyph glyph-name="tbar" unicode="&#x167;" horiz-adv-x="447" 
d="M168 683q-24 0 -25 -24l-3 -88q-2 -24 -25 -24h-18q-24 0 -24 -25v-21q0 -24 21 -24h20q25 0 24 -24l-13 -273q-3 -64 3 -100t27 -54t61 -22t106 -4h28q24 0 24 24v75q0 25 -24 25h-28q-38 0 -57.5 1t-27.5 11.5t-8.5 34t0.5 68.5l4 214q0 24 25 24h78q24 0 24 24v21
q0 25 -24 25h-77q-25 0 -24 25l3 86q1 25 -24 25h-46zM25 818q0 15 15 15h289q15 0 15 -15v-71q0 -15 -15 -15h-289q-15 0 -15 15v71z" />
    <glyph glyph-name="Utilde" unicode="&#x168;" horiz-adv-x="816" 
d="M73 834q0 29 28 29h66q29 0 29 -30l-5 -413q-2 -105 51 -159t167 -54q112 0 165 54t52 159l-4 413q0 30 28 30h65q28 0 28 -29l-5 -508q-3 -340 -329 -340q-165 0 -246.5 85t-83.5 255zM406 1132q-36 50 -63.5 42.5t-33.5 -58.5q-2 -14 -15 -14h-32q-15 0 -14 16
q3 46 19 75.5t39 41.5t50.5 6t53.5 -31l28 -27q30 -29 49 -17.5t21 59.5q1 15 15 15h32q15 0 14 -16q-3 -47 -20 -79t-41 -46t-51 -7t-51 40z" />
    <glyph glyph-name="utilde" unicode="&#x169;" horiz-adv-x="596" 
d="M73 522q0 25 24 25h37q25 0 24 -25l-9 -234q-2 -58 5 -91t22.5 -49.5t39 -20.5t53.5 -4q37 0 66 8t49.5 28t31 53t10.5 84l-1 227q0 24 25 24l48 1q24 0 24 -24l1 -498q0 -25 -25 -25l-37 -1q-23 0 -23 25v13q0 17 -7 19.5t-19 -10.5q-58 -61 -147 -61q-192 0 -192 230
v306zM287 816q-36 50 -63.5 42.5t-33.5 -58.5q-2 -14 -15 -14h-32q-15 0 -14 16q3 46 19 75.5t39 41.5t50.5 6t53.5 -31l28 -27q30 -29 49 -17.5t21 59.5q1 15 15 15h32q15 0 14 -16q-3 -47 -20 -79t-41 -46t-51 -7t-51 40z" />
    <glyph glyph-name="Umacron" unicode="&#x16a;" horiz-adv-x="816" 
d="M79 326q2 -170 83.5 -255t246.5 -85q326 0 329 340l5 508q0 29 -28 29h-65q-28 0 -28 -30l4 -413q1 -105 -52 -159t-165 -54q-114 0 -167 54t-51 159l5 413q0 30 -29 30h-66q-28 0 -28 -29zM246 1020q0 15 15 15h289q15 0 15 -15v-71q0 -15 -15 -15h-289q-15 0 -15 15v71
z" />
    <glyph glyph-name="umacron" unicode="&#x16b;" horiz-adv-x="596" 
d="M73 216q0 -230 192 -230q89 0 147 61q12 13 19 10.5t7 -19.5v-13q0 -25 23 -25l37 1q25 0 25 25l-1 498q0 24 -24 24l-48 -1q-25 0 -25 -24l1 -227q0 -51 -10.5 -84t-31 -53t-49.5 -28t-66 -8q-30 0 -53.5 4t-39 20.5t-22.5 49.5t-5 91l9 234q1 25 -24 25h-37
q-24 0 -24 -25v-306zM127 704q0 15 15 15h289q15 0 15 -15v-71q0 -15 -15 -15h-289q-15 0 -15 15v71z" />
    <glyph glyph-name="Uring" unicode="&#x16e;" horiz-adv-x="816" 
d="M73 834q0 29 28 29h66q29 0 29 -30l-5 -413q-2 -105 51 -159t167 -54q112 0 165 54t52 159l-4 413q0 30 28 30h65q28 0 28 -29l-5 -508q-3 -340 -329 -340q-165 0 -246.5 85t-83.5 255zM495 1060q0 36 -24.5 61.5t-62.5 25.5t-62.5 -24.5t-24.5 -62.5t24.5 -62.5
t62.5 -24.5t62.5 25.5t24.5 61.5zM566 1060q0 -33 -12.5 -62t-33.5 -50t-50 -33.5t-62 -12.5t-62 12.5t-50 33.5t-33.5 50t-12.5 62t12.5 62t33.5 50t50 33.5t62 12.5t62 -12.5t50 -33.5t33.5 -50t12.5 -62z" />
    <glyph glyph-name="uring" unicode="&#x16f;" horiz-adv-x="596" 
d="M73 522q0 25 24 25h37q25 0 24 -25l-9 -234q-2 -58 5 -91t22.5 -49.5t39 -20.5t53.5 -4q37 0 66 8t49.5 28t31 53t10.5 84l-1 227q0 24 25 24l48 1q24 0 24 -24l1 -498q0 -25 -25 -25l-37 -1q-23 0 -23 25v13q0 17 -7 19.5t-19 -10.5q-58 -61 -147 -61q-192 0 -192 230
v306zM376 744q0 36 -24.5 61.5t-62.5 25.5t-62.5 -24.5t-24.5 -62.5t24.5 -62.5t62.5 -24.5t62.5 25.5t24.5 61.5zM447 744q0 -33 -12.5 -62t-33.5 -50t-50 -33.5t-62 -12.5t-62 12.5t-50 33.5t-33.5 50t-12.5 62t12.5 62t33.5 50t50 33.5t62 12.5t62 -12.5t50 -33.5
t33.5 -50t12.5 -62z" />
    <glyph glyph-name="Uhungarumlaut" unicode="&#x170;" horiz-adv-x="816" 
d="M73 834q0 29 28 29h66q29 0 29 -30l-5 -413q-2 -105 51 -159t167 -54q112 0 165 54t52 159l-4 413q0 30 28 30h65q28 0 28 -29l-5 -508q-3 -340 -329 -340q-165 0 -246.5 85t-83.5 255zM486 1105q5 11 18 11h53q21 0 10 -18l-103 -156q-6 -10 -18 -10h-34q-8 0 -11.5 5
t1.5 13zM324 1105q5 11 17 11h50q9 0 12 -5t-2 -13l-92 -156q-6 -10 -18 -10h-35q-20 0 -11 18z" />
    <glyph glyph-name="uhungarumlaut" unicode="&#x171;" horiz-adv-x="596" 
d="M73 522q0 25 24 25h37q25 0 24 -25l-9 -234q-2 -58 5 -91t22.5 -49.5t39 -20.5t53.5 -4q37 0 66 8t49.5 28t31 53t10.5 84l-1 227q0 24 25 24l48 1q24 0 24 -24l1 -498q0 -25 -25 -25l-37 -1q-23 0 -23 25v13q0 17 -7 19.5t-19 -10.5q-58 -61 -147 -61q-192 0 -192 230
v306zM367 789q5 11 18 11h53q21 0 10 -18l-103 -156q-6 -10 -18 -10h-34q-8 0 -11.5 5t1.5 13zM205 789q5 11 17 11h50q9 0 12 -5t-2 -13l-92 -156q-6 -10 -18 -10h-35q-20 0 -11 18z" />
    <glyph glyph-name="Uogonek" unicode="&#x172;" horiz-adv-x="816" 
d="M715 863q28 0 28 -29l-5 -508q-3 -334 -319 -340l-1 -2q-27 -42 -32 -70t5.5 -42t34 -14.5t53.5 12.5q12 6 21 -4l25 -27q14 -14 -5 -21q-63 -24 -109 -18t-69.5 32t-20.5 67.5t39 88.5q-278 26 -281 338l-6 508q0 29 28 29h66q29 0 29 -30l-5 -413q-2 -105 51 -159
t167 -54q112 0 165 54t52 159l-4 413q0 30 28 30h65z" />
    <glyph glyph-name="uogonek" unicode="&#x173;" horiz-adv-x="596" 
d="M592 -159q14 -14 -5 -21q-63 -25 -110 -18t-70 34t-18.5 70t43.5 90q6 8 13 9q-8 8 -7 20v13q0 17 -7 19.5t-19 -10.5q-58 -61 -147 -61q-192 0 -192 230v306q0 25 24 25h37q25 0 24 -25l-9 -234q-2 -58 5 -91t22.5 -49.5t39 -20.5t53.5 -4q37 0 66 8t49.5 28t31 53
t10.5 84l-1 227q0 24 25 24l48 1q24 0 24 -24l1 -498q0 -25 -25 -25h-11q3 -7 -2 -15q-27 -42 -32 -70t5.5 -42t34 -14.5t53.5 12.5q12 6 21 -4z" />
    <glyph glyph-name="Wcircumflex" unicode="&#x174;" horiz-adv-x="1233" 
d="M74 828q-4 15 3.5 23.5t22.5 8.5h54q23 0 32 -25l193 -548q7 -19 17.5 -21.5t21.5 17.5l127 240q11 20 34 20h56q25 0 34 -20l114 -243q9 -19 19.5 -18.5t18.5 20.5l224 553q10 25 33 25h55q15 0 23 -8.5t3 -23.5l-242 -803q-7 -25 -32 -25h-121q-23 0 -33 22l-102 228
q-18 40 -37 0l-107 -229q-11 -21 -34 -21h-131q-24 0 -32 26zM567 956q7 9 18 9h50q10 0 18 -9l128 -157q7 -8 4 -13t-13 -5h-76q-12 0 -18 10l-58 93q-11 16 -21 0l-58 -93q-6 -10 -18 -10h-65q-22 0 -9 18z" />
    <glyph glyph-name="wcircumflex" unicode="&#x175;" horiz-adv-x="862" 
d="M74 520q-8 27 21 27h40q19 0 27 -21l102 -320q5 -16 14.5 -17t17.5 14l68 127q9 17 29 17h72q20 0 29 -17l73 -127q8 -14 17.5 -13.5t14.5 16.5l101 320q6 21 27 21h40q28 0 21 -27l-137 -499q-6 -21 -27 -21h-84q-21 0 -28 19l-65 155q-7 16 -16 16t-16 -16l-69 -156
q-8 -18 -28 -18h-79q-21 0 -27 21zM388 774q7 9 18 9h50q10 0 18 -9l128 -157q7 -8 4 -13t-13 -5h-76q-12 0 -18 10l-58 93q-11 16 -21 0l-58 -93q-6 -10 -18 -10h-65q-22 0 -9 18z" />
    <glyph glyph-name="Ycircumflex" unicode="&#x176;" horiz-adv-x="846" 
d="M77 826q-8 15 -2 24.5t23 9.5h65q22 0 33 -20l209 -383q8 -15 19.5 -15t19.5 15l206 383q11 20 33 20h65q17 0 22.5 -9.5t-2.5 -24.5l-260 -514q-5 -10 -7.5 -18t-1.5 -19l24 -247q2 -13 -7 -20.5t-23 -7.5h-146q-14 0 -22.5 7t-6.5 21l23 247q1 11 -1 19t-7 18z
M379 1044q7 9 18 9h50q10 0 18 -9l128 -157q7 -8 4 -13t-13 -5h-76q-12 0 -18 10l-58 93q-11 16 -21 0l-58 -93q-6 -10 -18 -10h-65q-22 0 -9 18z" />
    <glyph glyph-name="ycircumflex" unicode="&#x177;" horiz-adv-x="686" 
d="M392 -49q-29 -75 -58.5 -121.5t-59 -72.5t-60 -35t-60.5 -9h-57q-24 0 -24 24v75q0 24 24 24h38q26 0 53 18t51 46t43.5 62t30.5 67q2 7 3.5 15.5t-3.5 17.5l-213 456q-6 13 -0.5 21t19.5 8h44q18 0 29 -17l165 -271q8 -13 17.5 -12.5t16.5 14.5l125 268q9 18 28 18h47
q14 0 19.5 -7.5t0.5 -20.5zM309 774q7 9 18 9h50q10 0 18 -9l128 -157q7 -8 4 -13t-13 -5h-76q-12 0 -18 10l-58 93q-11 16 -21 0l-58 -93q-6 -10 -18 -10h-65q-22 0 -9 18z" />
    <glyph glyph-name="Ydieresis" unicode="&#x178;" horiz-adv-x="846" 
d="M77 826q-8 15 -2 24.5t23 9.5h65q22 0 33 -20l209 -383q8 -15 19.5 -15t19.5 15l206 383q11 20 33 20h65q17 0 22.5 -9.5t-2.5 -24.5l-260 -514q-5 -10 -7.5 -18t-1.5 -19l24 -247q2 -13 -7 -20.5t-23 -7.5h-146q-14 0 -22.5 7t-6.5 21l23 247q1 11 -1 19t-7 18z
M481 1020q0 15 15 15h76q15 0 15 -15v-76q0 -15 -15 -15h-76q-15 0 -15 15v76zM256 1020q0 15 15 15h77q15 0 15 -15v-76q0 -15 -15 -15h-77q-15 0 -15 15v76z" />
    <glyph glyph-name="Zacute" unicode="&#x179;" horiz-adv-x="871" 
d="M75 832q0 28 28 28h666q29 0 29 -28v-40q0 -19 -14 -36l-451 -520q-12 -14 -7.5 -24.5t23.5 -10.5h403q30 0 30 -29v-144q0 -28 -30 -28h-651q-28 0 -28 28v143q0 21 14 35l486 521q14 15 9.5 25t-24.5 10h-455q-28 0 -28 29v41zM628 1282q8 0 11.5 -5t-1.5 -13l-85 -154
q-6 -11 -18 -11h-98q-22 0 -9 18l117 156q7 9 18 9h65z" />
    <glyph glyph-name="zacute" unicode="&#x17a;" horiz-adv-x="609" 
d="M105 522q0 25 24 25h373q24 0 24 -25v-40q0 -17 -11 -30l-280 -302q-11 -12 -7 -20.5t21 -8.5h263q24 0 24 -25v-72q0 -24 -24 -24h-415q-24 0 -24 24v89q0 19 12 30l315 307q12 11 8.5 20.5t-20.5 9.5h-259q-24 0 -24 24v18zM504 990q8 0 11.5 -5t-1.5 -13l-85 -154
q-6 -11 -18 -11h-98q-22 0 -9 18l117 156q7 9 18 9h65z" />
    <glyph glyph-name="Zdotaccent" unicode="&#x17b;" horiz-adv-x="871" 
d="M75 832q0 28 28 28h666q29 0 29 -28v-40q0 -19 -14 -36l-451 -520q-12 -14 -7.5 -24.5t23.5 -10.5h403q30 0 30 -29v-144q0 -28 -30 -28h-651q-28 0 -28 28v143q0 21 14 35l486 521q14 15 9.5 25t-24.5 10h-455q-28 0 -28 29v41zM401 1035q0 15 15 15l66 1q15 0 15 -15
l2 -74q0 -15 -15 -15h-70q-15 0 -15 15z" />
    <glyph glyph-name="zdotaccent" unicode="&#x17c;" horiz-adv-x="609" 
d="M105 522q0 25 24 25h373q24 0 24 -25v-40q0 -17 -11 -30l-280 -302q-11 -12 -7 -20.5t21 -8.5h263q24 0 24 -25v-72q0 -24 -24 -24h-415q-24 0 -24 24v89q0 19 12 30l315 307q12 11 8.5 20.5t-20.5 9.5h-259q-24 0 -24 24v18zM277 743q0 15 15 15l66 1q15 0 15 -15l2 -74
q0 -15 -15 -15h-70q-15 0 -15 15z" />
    <glyph glyph-name="Zcaron" unicode="&#x17d;" horiz-adv-x="871" 
d="M75 832q0 28 28 28h666q29 0 29 -28v-40q0 -19 -14 -36l-451 -520q-12 -14 -7.5 -24.5t23.5 -10.5h403q30 0 30 -29v-144q0 -28 -30 -28h-651q-28 0 -28 28v143q0 21 14 35l486 521q14 15 9.5 25t-24.5 10h-455q-28 0 -28 29v41zM298 1074q-13 18 9 18h65q12 0 18 -10
l58 -93q10 -17 21 0l58 93q6 10 18 10h76q10 0 13 -5t-4 -13l-128 -157q-8 -9 -18 -9h-50q-11 0 -18 9z" />
    <glyph glyph-name="zcaron" unicode="&#x17e;" horiz-adv-x="609" 
d="M105 522q0 25 24 25h373q24 0 24 -25v-40q0 -17 -11 -30l-280 -302q-11 -12 -7 -20.5t21 -8.5h263q24 0 24 -25v-72q0 -24 -24 -24h-415q-24 0 -24 24v89q0 19 12 30l315 307q12 11 8.5 20.5t-20.5 9.5h-259q-24 0 -24 24v18zM174 782q-13 18 9 18h65q12 0 18 -10l58 -93
q10 -17 21 0l58 93q6 10 18 10h76q10 0 13 -5t-4 -13l-128 -157q-8 -9 -18 -9h-50q-11 0 -18 9z" />
    <glyph glyph-name="Bhook" unicode="&#x181;" horiz-adv-x="767" 
 />
    <glyph glyph-name="Oopen" unicode="&#x186;" horiz-adv-x="829" 
d="M74 799q-4 22 19 34q57 29 122.5 37t137.5 8q97 0 172 -31t126.5 -88.5t78 -140.5t26.5 -186q0 -104 -23.5 -186.5t-72.5 -140t-125 -88.5t-182 -31q-36 0 -70.5 3.5t-67 11.5t-61 21.5t-50.5 34.5q-10 9 -14 16t-5 18l-12 158q-2 19 10 22t24 -5q18 -14 47 -25
t62.5 -19.5t69 -13t67.5 -4.5q84 0 138 9t85 34t43 69.5t14 115.5q4 172 -64.5 262.5t-215.5 90.5q-64 0 -121.5 -12t-111.5 -45q-16 -10 -23 -6t-11 22z" />
    <glyph glyph-name="Chook" unicode="&#x187;" horiz-adv-x="600" 
 />
    <glyph glyph-name="chook" unicode="&#x188;" horiz-adv-x="693" 
d="M620 660q2 -2 -2 -4q-28 -15 -47 -23.5t-31.5 -20.5t-19.5 -31t-10 -54l-4 -45v-3q0 -14 -8 -18.5t-21 1.5q-62 27 -125 27q-88 0 -133.5 -58t-45.5 -158q7 -72 47 -109t128 -41q32 -2 64 7t64 20q28 10 28 -18l1 -90q0 -22 -18 -29q-68 -27 -145 -27q-62 0 -111.5 20
t-84.5 57.5t-54 90.5t-19 119q0 67 19 120t54.5 90t86.5 57t115 20q50 0 97 -12q5 44 9 69t8.5 38t11.5 18t18 8l103 32q4 0 4 -2z" />
    <glyph glyph-name="Dafrican" unicode="&#x189;" horiz-adv-x="1019" 
d="M486 204q64 0 125 7.5t108.5 31.5t76.5 68.5t29 119.5q0 76 -20 138t-61.5 105.5t-105.5 67t-152 23.5h-112q-28 0 -28 -29v-276h212q15 0 15 -15v-40q0 -15 -15 -15h-212v-158q0 -28 28 -28h112zM462 860q103 0 191.5 -25.5t153.5 -78.5t102 -133.5t37 -191.5t-37 -192
t-102.5 -134.5t-154 -79t-190.5 -25.5h-211q-28 0 -28 28v362h-135q-15 0 -15 15v40q0 15 15 15h135v372q0 28 28 28h211z" />
    <glyph glyph-name="Dhook" unicode="&#x18a;" horiz-adv-x="600" 
 />
    <glyph glyph-name="Ereversed" unicode="&#x18e;" horiz-adv-x="700" 
d="M627 28q0 -28 -29 -28h-497q-28 0 -28 28v148q0 28 28 28h381q28 0 28 30v145q0 28 -28 28h-353q-28 0 -28 30v40q0 28 28 28h353q28 0 28 30v219q0 28 -28 28h-370q-29 0 -29 29v21q0 28 29 28h486q29 0 29 -28v-804z" />
    <glyph glyph-name="Schwa" unicode="&#x18f;" horiz-adv-x="630" 
d="M165 187q-13 0 -18 -7.5t-3 -19.5q10 -57 50.5 -90.5t100.5 -33.5q33 0 61 9.5t49.5 26.5t35 40t16.5 50q3 26 -23 26zM73 236q0 25 24 25h337q24 0 24 25q0 43 -9.5 70t-30.5 42t-54.5 20t-82.5 5q-45 0 -92 -2t-78 -10q-12 -3 -20 0.5t-8 17.5l-1 73q0 19 18 28
q21 10 40.5 16t41 9.5t46 4.5t56.5 0q142 -4 209 -71.5t64 -199.5q-2 -68 -19.5 -123.5t-50.5 -95.5t-81.5 -62t-110.5 -22q-41 0 -81 15.5t-71.5 46t-50.5 75.5t-19 104v9z" />
    <glyph glyph-name="Eopen" unicode="&#x190;" horiz-adv-x="627" 
d="M188 465q10 5 11 11.5t-8 12.5q-25 18 -44 35.5t-31.5 37t-18 42t-4.5 51.5q2 63 26.5 104.5t62.5 66.5t86 36t97 14t94 0t79 -6q13 -2 15.5 -11.5t-1.5 -21.5l-13 -44q-5 -15 -11.5 -19.5t-21.5 -4.5q-24 0 -55.5 4t-64.5 6t-65 0t-57 -15t-40.5 -38.5t-15.5 -70.5
q0 -66 45 -99.5t132 -33.5h76q29 0 29 -29v-39q0 -28 -29 -28q-85 0 -137.5 -18t-79 -45.5t-29.5 -61.5t11.5 -65t43 -56.5t66 -36.5t80.5 -3.5t86 41.5q14 11 25 4t9 -24l-12 -119q-2 -12 -7 -20.5t-17 -12.5q-33 -10 -77 -15.5t-91.5 -2t-94 18.5t-83 47t-59 82.5
t-22.5 124.5q0 36 4.5 64.5t17.5 52.5t35.5 44.5t57.5 39.5z" />
    <glyph glyph-name="Fhook" unicode="&#x191;" horiz-adv-x="786" 
d="M683 860q30 0 30 -28v-34q0 -30 -30 -30h-321q-29 0 -29 -28l2 -202q0 -29 28 -29h278q28 0 28 -29v-63q0 -29 -28 -29h-272q-30 0 -28 -29l21 -330q0 -9 -1 -12q-3 -30 -5.5 -48.5t-7.5 -30.5t-13 -19.5t-21 -14.5l-176 -102q-4 -3 -9 2l-55 84q-3 6 2 9q48 41 80.5 67
t50.5 55q-1 2 -1 10l23 803q1 28 28 28h426z" />
    <glyph glyph-name="florin" unicode="&#x192;" horiz-adv-x="801" 
d="M728 695q0 -20 -18 -9q-14 8 -25 11t-28 3q-48 0 -79.5 -31t-42.5 -95l-23 -138q-3 -18 14 -16l111 8q16 1 16 -15v-44q0 -15 -15 -16l-126 -8q-14 -1 -16 -15l-30 -223q-14 -107 -36.5 -169.5t-53 -94.5t-68.5 -41.5t-83 -9.5q-12 0 -33 4t-42.5 10.5t-41 14t-28.5 13.5
q-11 8 -5 20l55 123q7 16 21 4q20 -12 49.5 -24t49.5 -12q48 0 77 31.5t40 106.5l36 239q3 17 -15 16l-88 -6q-16 -1 -16 15v43q0 13 14 15l105 8q13 1 16 14l28 151q17 91 67 136.5t125 45.5q23 0 40 -2.5t37 -9.5q12 -3 12 -17v-36z" />
    <glyph glyph-name="Ghook" unicode="&#x193;" horiz-adv-x="600" 
 />
    <glyph glyph-name="Gammaafrican" unicode="&#x194;" horiz-adv-x="844" 
d="M426 -87q18 0 30 2t13 16t-11 44t-41 86q-26 -55 -35.5 -85t-6.5 -44t16.5 -16.5t34.5 -2.5zM722 676q10 -9 3 -22l-237 -449q72 -127 103 -209.5t23 -130.5t-54.5 -67t-129.5 -19q-97 0 -150 18.5t-64 67t19.5 131.5t101.5 212q-45 81 -108 190.5t-149 258.5q-8 14 0 22
l54 53q13 12 40 -29q70 -106 129 -197t107 -169l104 175.5t125 208.5q9 15 21 5z" />
    <glyph glyph-name="Iotaafrican" unicode="&#x196;" horiz-adv-x="600" 
 />
    <glyph glyph-name="Istroke" unicode="&#x197;" horiz-adv-x="646" 
d="M558 508q15 0 15 -15v-40q0 -15 -15 -15h-193q0 -64 2.5 -125.5t8 -115t13.5 -96.5t19 -70q6 -15 -3.5 -23t-23.5 -8h-157q-15 0 -23.5 7t-4.5 22q26 103 46.5 204.5t28.5 204.5h-183q-15 0 -15 15v40q0 15 15 15h187q4 90 -5.5 174t-37.5 162q-4 11 6 18.5t24 7.5h97
q14 0 22 -8t6 -22q-9 -63 -14.5 -149t-6.5 -183h192z" />
    <glyph glyph-name="Khook" unicode="&#x198;" horiz-adv-x="600" 
 />
    <glyph glyph-name="khook" unicode="&#x199;" horiz-adv-x="600" 
 />
    <glyph glyph-name="Nhookleft" unicode="&#x19d;" horiz-adv-x="820" 
d="M718 860q29 0 29 -28v-804q0 -28 -29 -28h-117q-24 0 -34 21l-332 628q-5 10 -11.5 14t-11.5 2.5t-8.5 -8t-2.5 -17.5l41 -611v-7q6 -54 5.5 -89.5t3 -56.5t16.5 -29t45 -8q15 0 17.5 -5.5t4.5 -13.5l35 -171q1 -5 -5.5 -7t-14.5 1l-129 48q-3 1 -25 8.5t-48 22.5
t-47.5 37.5t-23.5 53.5q-5 88 -4.5 145.5t2.5 94.5l32 761q2 29 29 29h94q23 0 34 -21l326 -598q11 -20 22.5 -16.5t12.5 24.5l15 600q0 28 29 28h50z" />
    <glyph glyph-name="Ohorn" unicode="&#x1a0;" horiz-adv-x="932" 
d="M466 207q63 0 114 10t87 35.5t55 69t19 110.5q0 81 -19 146.5t-55 111t-87 70t-114 24.5t-114 -24.5t-87 -70t-55.5 -111t-19.5 -146.5q0 -67 19.5 -110.5t55.5 -69t87 -35.5t114 -10zM886 747q0 -26 -2 -46.5t-8 -36.5t-17 -29.5t-28 -25.5q28 -81 28 -177
q0 -102 -31 -184t-84 -140.5t-124.5 -90t-153.5 -31.5t-153.5 31.5t-125 89.5t-84 140.5t-30.5 184.5t30.5 184t84 140.5t125 90t153.5 31.5q56 0 107.5 -15t96 -43.5t80.5 -69t61 -92.5l9 4q15 7 17 27t-0.5 41t-3.5 37.5t8 15.5l27 -2q12 -1 15 -8.5t3 -25.5z" />
    <glyph glyph-name="ohorn" unicode="&#x1a1;" horiz-adv-x="648" 
d="M324 141q36 0 65 5.5t49 21t31 44.5t11 77q0 94 -42 149.5t-114 55.5t-114 -54t-42 -151q0 -48 10.5 -77t31 -45t49.5 -21t65 -5zM625 504q0 -27 -2.5 -47.5t-9 -37t-18 -30t-29.5 -26.5q9 -41 9 -90q0 -136 -66.5 -211.5t-184.5 -75.5q-59 0 -105.5 19.5t-79 56.5
t-49.5 90t-17 121q0 67 17 120.5t49.5 90.5t79 56.5t105.5 19.5q82 0 139.5 -37.5t86.5 -107.5l9 4q15 7 17 27t-0.5 41t-3.5 37.5t8 15.5l27 -2q12 -1 15 -8.5t3 -25.5z" />
    <glyph glyph-name="Phook" unicode="&#x1a4;" horiz-adv-x="600" 
 />
    <glyph glyph-name="phook" unicode="&#x1a5;" horiz-adv-x="600" 
 />
    <glyph glyph-name="Esh" unicode="&#x1a9;" horiz-adv-x="600" 
d="M235 -18q-11 -12 -7 -20.5t21 -8.5h263q24 0 24 -25v-72q0 -24 -24 -24h-415q-24 0 -24 24v89q0 19 12 30l321 313q7 10 0 20l-312 336q-11 13 -11 30v40q0 25 24 25h373q24 0 24 -25v-18q0 -24 -24 -24h-259q-17 0 -20.5 -9t8.5 -21l317 -325q10 -11 0 -21z" />
    <glyph glyph-name="Thook" unicode="&#x1ac;" horiz-adv-x="986" 
d="M883 860q30 0 30 -28v-40q0 -31 -30 -29l-247 10q-30 2 -28 -30l28 -714q2 -29 -27 -29h-119q-30 0 -28 29l27 714q2 32 -28 30l-61 -2l-2 -1h-5l-151 -6q-15 -6 -26 -15t-22 -22t-23 -30.5t-28 -38.5q-1 -4 -6 -2l-61 36q-5 2 -2 6l65 127q7 14 16.5 21.5t32.5 10.5
t66 3h118h511z" />
    <glyph glyph-name="thook" unicode="&#x1ad;" horiz-adv-x="600" 
 />
    <glyph glyph-name="Tretroflexhook" unicode="&#x1ae;" horiz-adv-x="600" 
 />
    <glyph glyph-name="Uhorn" unicode="&#x1af;" horiz-adv-x="816" 
d="M802 873q12 -1 15 -8.5t3 -25.5q0 -30 -2.5 -52.5t-10.5 -40.5t-23 -32t-40 -26l-2 -1l-4 -361q-3 -340 -329 -340q-165 0 -246.5 85t-83.5 255l-6 508q0 29 28 29h66q29 0 29 -30l-5 -413q-2 -105 51 -159t167 -54q112 0 165 54t52 159l-4 413q0 30 28 30h65
q28 0 28 -29l-1 -85l12 5q15 6 17 26t0 41.5t-3.5 38t7.5 15.5z" />
    <glyph glyph-name="uhorn" unicode="&#x1b0;" horiz-adv-x="596" 
d="M605 592q12 -1 15 -8.5t3 -25.5q0 -30 -3 -52t-11 -39.5t-23 -31.5t-39 -28q-9 -5 -12.5 -5.5t-5 1t-1.5 5t-2 6.5l-4 8l1 -396q0 -25 -25 -25l-37 -1q-23 0 -23 25v13q0 17 -7 19.5t-19 -10.5q-58 -61 -147 -61q-192 0 -192 230v306q0 25 24 25h37q25 0 24 -25l-9 -234
q-2 -58 5 -91t22.5 -49.5t39 -20.5t53.5 -4q37 0 66 8t49.5 28t31 53t10.5 84l-1 227q0 24 25 24l48 1q24 0 24 -24v-67l35 16q15 7 17 27t-0.5 41t-3.5 37.5t8 15.5z" />
    <glyph glyph-name="Upsilonafrican" unicode="&#x1b1;" horiz-adv-x="978" 
d="M839 671q-8 0 -11.5 -5t1.5 -13q24 -44 35 -95.5t11 -112.5q0 -102 -31 -184t-84 -140.5t-124.5 -90t-153.5 -31.5t-153.5 31.5t-125 90t-84 140.5t-30.5 184q0 60 18 111t47 96q11 18 -9 18h-57q-15 0 -15 15v117q0 15 15 15h335q15 0 15 -15v-118q0 -15 -15 -16
q-50 -4 -90.5 -17.5t-68.5 -39.5t-43 -67t-15 -99q0 -81 19.5 -146.5t55.5 -111t87 -70t114 -24.5t114 24.5t87 70t55 111t19 146.5q0 57 -14 96.5t-40.5 66t-64 40.5t-85.5 19q-14 2 -14 15v134h1v1q0 1 15 1h335q15 0 15 -15v-117q0 -15 -15 -15h-51z" />
    <glyph glyph-name="Vhook" unicode="&#x1b2;" horiz-adv-x="858" 
d="M603 1094q71 -79 111 -124.5t57.5 -72.5t17.5 -42.5t-8 -34.5l-248 -796q-8 -24 -33 -24h-140q-26 0 -33 24l-252 803q-5 15 1.5 24t22.5 9h63q24 0 33 -22l215 -576q7 -18 19 -18t19 18l186 494q7 30 10.5 54t-1.5 47t-21 49t-49 60l-52 54q-3 5 1 8l73 66q4 4 8 0z" />
    <glyph glyph-name="Yhook" unicode="&#x1b3;" horiz-adv-x="1072" 
d="M999 779q2 -8 -6 -8l-88 -4q-68 -3 -105.5 -15t-61.5 -35.5t-44.5 -59.5t-54.5 -87l-2 -3l-129 -255q-5 -10 -7.5 -18t-1.5 -19l24 -247q2 -13 -7 -20.5t-23 -7.5h-146q-14 0 -22.5 7t-6.5 21l23 247q1 11 -1 19t-7 18l-256 514q-8 15 -2 24.5t23 9.5h65q22 0 33 -20
l209 -383q8 -15 19.5 -15t19.5 15l93 173l71 182q6 16 12.5 26.5t20 18.5t37 13.5t63.5 10.5t99 9.5t144 10.5q7 0 7 -6z" />
    <glyph glyph-name="yhook" unicode="&#x1b4;" horiz-adv-x="686" 
d="M857 536q0 -7 -5 -7l-79 -7q-61 -5 -95 -17t-55.5 -33.5t-38 -54.5t-43.5 -81l-149 -385q-29 -75 -58.5 -121.5t-59 -72.5t-60 -35t-60.5 -9h-57q-24 0 -24 24v75q0 24 24 24h38q26 0 53 18t51 46t43.5 62t30.5 67q2 7 3.5 15.5t-3.5 17.5l-213 456q-6 13 -0.5 21t19.5 8
h44q18 0 29 -17l165 -271q8 -13 17.5 -12.5t16.5 14.5l52 111v4l62 177q5 14 11 24.5t18 18t33 13t56.5 11t88 11.5t128.5 14q6 0 6 -6z" />
    <glyph glyph-name="Ezh" unicode="&#x1b7;" horiz-adv-x="600" 
 />
    <glyph glyph-name="clickdental" unicode="&#x1c0;" horiz-adv-x="293" 
d="M196 346l-15 -567q0 -15 -15 -15h-79q-16 0 -14 15l32 568l27 582q0 15 16 15h58q14 0 14 -15z" />
    <glyph glyph-name="clicklateral" unicode="&#x1c1;" horiz-adv-x="592" 
d="M495 346l-15 -567q0 -15 -15 -15h-79q-16 0 -14 15l32 568l27 582q0 15 16 15h58q14 0 14 -15zM196 346l-15 -567q0 -15 -15 -15h-79q-16 0 -14 15l32 568l27 582q0 15 16 15h58q14 0 14 -15z" />
    <glyph glyph-name="clickalveolar" unicode="&#x1c2;" horiz-adv-x="781" 
d="M693 517q15 0 15 -15v-62q0 -15 -15 -15h-254l-3 -79l-3 -115h251q15 0 15 -15v-62q0 -15 -15 -15h-253l-10 -360q0 -15 -15 -15h-79q-16 0 -14 15l20 360h-245q-15 0 -15 15v62q0 15 15 15h250l7 116l4 78h-252q-15 0 -15 15v62q0 15 15 15h256l19 412q0 15 16 15h58
q14 0 14 -15l-17 -412h250z" />
    <glyph glyph-name="clickretroflex" unicode="&#x1c3;" horiz-adv-x="295" 
d="M83 122q1 28 30 28h69q15 0 21.5 -7t8.5 -21l8 -92q3 -30 -28 -30h-88q-31 0 -28 30zM91 679l8 316q0 12 7 17t18 7l46 10q12 2 18.5 -5t6.5 -19l4 -326l23 -379q1 -25 -23 -25h-103q-24 0 -23 25z" />
    <glyph glyph-name="Acaron" unicode="&#x1cd;" horiz-adv-x="914" 
d="M469 651q-12 34 -23 0l-115 -341q-5 -15 1.5 -24t22.5 -9h204q16 0 22.5 9t1.5 24zM394 838q9 22 33 22h60q24 0 33 -22l318 -805q6 -15 -0.5 -24t-22.5 -9h-117q-26 0 -32 25l-21 94q-6 26 -32 26h-312q-28 0 -33 -23l-17 -98q-5 -24 -32 -24h-120q-17 0 -23.5 9
t-0.5 24zM310 1056q-13 18 9 18h65q12 0 18 -10l58 -93q10 -17 21 0l58 93q6 10 18 10h76q10 0 13 -5t-4 -13l-128 -157q-8 -9 -18 -9h-50q-11 0 -18 9z" />
    <glyph glyph-name="acaron" unicode="&#x1ce;" horiz-adv-x="608" 
d="M270 123q33 0 56.5 4.5t38.5 19t22.5 40.5t7.5 69q0 23 -24 23h-57q-46 0 -76.5 -4.5t-49.5 -14.5t-28 -25.5t-11 -36.5q-1 -8 -0.5 -14.5t3.5 -14.5q6 -16 17 -25t26 -13.5t34 -6t41 -1.5zM299 560q236 0 236 -248v-288q0 -24 -24 -24h-41q-25 0 -25 24v11
q0 17 -7.5 19.5t-19.5 -9.5q-29 -29 -68.5 -44t-93.5 -15q-42 0 -75.5 12.5t-57.5 35t-37 54.5t-13 71q0 186 246 186h102q24 0 24 9q0 63 -38 99.5t-117 40.5q-39 2 -76 -7t-72 -24q-13 -6 -21 -1.5t-8 18.5v21q0 20 20 28q84 31 166 31zM164 782q-13 18 9 18h65
q12 0 18 -10l58 -93q10 -17 21 0l58 93q6 10 18 10h76q10 0 13 -5t-4 -13l-128 -157q-8 -9 -18 -9h-50q-11 0 -18 9z" />
    <glyph glyph-name="Icaron" unicode="&#x1cf;" horiz-adv-x="361" 
d="M74 29q27 103 48 210t29 211.5t-0.5 204t-40.5 189.5q-4 11 6 18.5t24 7.5h97q14 0 22 -8t6 -22q-8 -51 -13.5 -121t-7.5 -149t-1 -160.5t6 -154.5t14 -132t23 -92q6 -15 -3.5 -23t-23.5 -8h-157q-15 0 -23.5 7t-4.5 22zM36 1095q-13 18 9 18h65q12 0 18 -10l58 -93
q10 -17 21 0l58 93q6 10 18 10h76q10 0 13 -5t-4 -13l-128 -157q-8 -9 -18 -9h-50q-11 0 -18 9z" />
    <glyph glyph-name="icaron" unicode="&#x1d0;" horiz-adv-x="287" 
d="M73 20q9 62 16.5 119.5t12 116.5t5.5 123t-3 141q-1 10 6 16t19 6h42q12 0 19 -6.5t5 -18.5q-6 -57 -9.5 -122.5t-2 -131.5t8.5 -128.5t21 -113.5q4 -13 -3.5 -19.5t-19.5 -6.5h-93q-27 0 -24 25zM1 782q-13 18 9 18h65q12 0 18 -10l58 -93q10 -17 21 0l58 93q6 10 18 10
h76q10 0 13 -5t-4 -13l-128 -157q-8 -9 -18 -9h-50q-11 0 -18 9z" />
    <glyph glyph-name="Ocaron" unicode="&#x1d1;" horiz-adv-x="932" 
d="M466 784q-63 0 -114 -24.5t-87 -70t-55.5 -111t-19.5 -146.5q0 -67 19.5 -110.5t55.5 -69t87 -35.5t114 -10t114 10t87 35.5t55 69t19 110.5q0 81 -19 146.5t-55 111t-87 70t-114 24.5zM466 878q82 0 153.5 -31.5t124.5 -90t84 -140.5t31 -184t-31 -184t-84 -140.5
t-124.5 -90t-153.5 -31.5t-153.5 31.5t-125 89.5t-84 140.5t-30.5 184.5t30.5 184t84 140.5t125 90t153.5 31.5zM314 1137q-13 18 9 18h65q12 0 18 -10l58 -93q10 -17 21 0l58 93q6 10 18 10h76q10 0 13 -5t-4 -13l-128 -157q-8 -9 -18 -9h-50q-11 0 -18 9z" />
    <glyph glyph-name="ocaron" unicode="&#x1d2;" horiz-adv-x="648" 
d="M324 494q-72 0 -114 -54t-42 -151q0 -48 10.5 -77t31 -45t49.5 -21t65 -5t65 5.5t49 21t31 44.5t11 77q0 94 -42 149.5t-114 55.5zM324 560q118 0 184.5 -75.5t66.5 -211.5t-66.5 -211.5t-184.5 -75.5q-59 0 -105.5 19.5t-79 56.5t-49.5 90t-17 121q0 67 17 120.5
t49.5 90.5t79 56.5t105.5 19.5zM172 782q-13 18 9 18h65q12 0 18 -10l58 -93q10 -17 21 0l58 93q6 10 18 10h76q10 0 13 -5t-4 -13l-128 -157q-8 -9 -18 -9h-50q-11 0 -18 9z" />
    <glyph glyph-name="Ucaron" unicode="&#x1d3;" horiz-adv-x="816" 
d="M73 834q0 29 28 29h66q29 0 29 -30l-5 -413q-2 -105 51 -159t167 -54q112 0 165 54t52 159l-4 413q0 30 28 30h65q28 0 28 -29l-5 -508q-3 -340 -329 -340q-165 0 -246.5 85t-83.5 255zM256 1098q-13 18 9 18h65q12 0 18 -10l58 -93q10 -17 21 0l58 93q6 10 18 10h76
q10 0 13 -5t-4 -13l-128 -157q-8 -9 -18 -9h-50q-11 0 -18 9z" />
    <glyph glyph-name="ucaron" unicode="&#x1d4;" horiz-adv-x="596" 
d="M73 522q0 25 24 25h37q25 0 24 -25l-9 -234q-2 -58 5 -91t22.5 -49.5t39 -20.5t53.5 -4q37 0 66 8t49.5 28t31 53t10.5 84l-1 227q0 24 25 24l48 1q24 0 24 -24l1 -498q0 -25 -25 -25l-37 -1q-23 0 -23 25v13q0 17 -7 19.5t-19 -10.5q-58 -61 -147 -61q-192 0 -192 230
v306zM137 782q-13 18 9 18h65q12 0 18 -10l58 -93q10 -17 21 0l58 93q6 10 18 10h76q10 0 13 -5t-4 -13l-128 -157q-8 -9 -18 -9h-50q-11 0 -18 9z" />
    <glyph glyph-name="Udieresismacron" unicode="&#x1d5;" horiz-adv-x="816" 
d="M73 834q0 29 28 29h66q29 0 29 -30l-5 -413q-2 -105 51 -159t167 -54q112 0 165 54t52 159l-4 413q0 30 28 30h65q28 0 28 -29l-5 -508q-3 -340 -329 -340q-165 0 -246.5 85t-83.5 255zM262 995q0 15 15 15h289q15 0 15 -15v-71q0 -15 -15 -15h-289q-15 0 -15 15v71z
M467 1148q0 15 15 15h76q15 0 15 -15v-76q0 -15 -15 -15h-76q-15 0 -15 15v76zM242 1148q0 15 15 15h77q15 0 15 -15v-76q0 -15 -15 -15h-77q-15 0 -15 15v76z" />
    <glyph glyph-name="udieresismacron" unicode="&#x1d6;" horiz-adv-x="596" 
d="M73 522q0 25 24 25h37q25 0 24 -25l-9 -234q-2 -58 5 -91t22.5 -49.5t39 -20.5t53.5 -4q37 0 66 8t49.5 28t31 53t10.5 84l-1 227q0 24 25 24l48 1q24 0 24 -24l1 -498q0 -25 -25 -25l-37 -1q-23 0 -23 25v13q0 17 -7 19.5t-19 -10.5q-58 -61 -147 -61q-192 0 -192 230
v306zM146 677q0 15 15 15h289q15 0 15 -15v-71q0 -15 -15 -15h-289q-15 0 -15 15v71zM367 818q0 15 15 15h76q15 0 15 -15v-76q0 -15 -15 -15h-76q-15 0 -15 15v76zM142 818q0 15 15 15h77q15 0 15 -15v-76q0 -15 -15 -15h-77q-15 0 -15 15v76z" />
    <glyph glyph-name="Udieresisacute" unicode="&#x1d7;" horiz-adv-x="816" 
d="M73 834q0 29 28 29h66q29 0 29 -30l-5 -413q-2 -105 51 -159t167 -54q112 0 165 54t52 159l-4 413q0 30 28 30h65q28 0 28 -29l-5 -508q-3 -340 -329 -340q-165 0 -246.5 85t-83.5 255zM467 1066q0 15 15 15h76q15 0 15 -15v-76q0 -15 -15 -15h-76q-15 0 -15 15v76z
M242 1066q0 15 15 15h77q15 0 15 -15v-76q0 -15 -15 -15h-77q-15 0 -15 15v76zM586 1306q8 0 11.5 -5t-1.5 -13l-85 -154q-6 -11 -18 -11h-98q-22 0 -9 18l117 156q7 9 18 9h65z" />
    <glyph glyph-name="udieresisacute" unicode="&#x1d8;" horiz-adv-x="596" 
d="M73 522q0 25 24 25h37q25 0 24 -25l-9 -234q-2 -58 5 -91t22.5 -49.5t39 -20.5t53.5 -4q37 0 66 8t49.5 28t31 53t10.5 84l-1 227q0 24 25 24l48 1q24 0 24 -24l1 -498q0 -25 -25 -25l-37 -1q-23 0 -23 25v13q0 17 -7 19.5t-19 -10.5q-58 -61 -147 -61q-192 0 -192 230
v306zM348 750q0 15 15 15h76q15 0 15 -15v-76q0 -15 -15 -15h-76q-15 0 -15 15v76zM123 750q0 15 15 15h77q15 0 15 -15v-76q0 -15 -15 -15h-77q-15 0 -15 15v76zM467 990q8 0 11.5 -5t-1.5 -13l-85 -154q-6 -11 -18 -11h-98q-22 0 -9 18l117 156q7 9 18 9h65z" />
    <glyph glyph-name="Udieresiscaron" unicode="&#x1d9;" horiz-adv-x="816" 
d="M715 863q28 0 28 -29l-5 -508q-3 -340 -329 -340q-165 0 -246.5 85t-83.5 255l-6 508q0 29 28 29h66q29 0 29 -30l-5 -413q-2 -105 51 -159t167 -54q112 0 165 54t52 159l-4 413q0 30 28 30h65zM257 975q-15 0 -15 15v76q0 15 15 15h12l-13 17q-13 18 9 18h65
q12 0 18 -10l58 -93q10 -17 21 0l58 93q6 10 18 10h76q10 0 13 -5t-4 -13l-18 -22q3 -3 3 -10v-76q0 -15 -15 -15h-70l-28 -34q-8 -9 -18 -9h-50q-11 0 -18 9l-29 38q-3 -4 -11 -4h-77z" />
    <glyph glyph-name="udieresiscaron" unicode="&#x1da;" horiz-adv-x="596" 
d="M523 26q0 -25 -25 -25l-37 -1q-23 0 -23 25v13q0 17 -7 19.5t-19 -10.5q-58 -61 -147 -61q-192 0 -192 230v306q0 25 24 25h37q25 0 24 -25l-9 -234q-2 -58 5 -91t22.5 -49.5t39 -20.5t53.5 -4q37 0 66 8t49.5 28t31 53t10.5 84l-1 227q0 24 25 24l48 1q24 0 24 -24z
M138 659q-15 0 -15 15v76q0 15 15 15h12l-13 17q-13 18 9 18h65q12 0 18 -10l58 -93q10 -17 21 0l58 93q6 10 18 10h76q10 0 13 -5t-4 -13l-18 -22q3 -3 3 -10v-76q0 -15 -15 -15h-70l-28 -34q-8 -9 -18 -9h-50q-11 0 -18 9l-29 38q-3 -4 -11 -4h-77z" />
    <glyph glyph-name="Udieresisgrave" unicode="&#x1db;" horiz-adv-x="816" 
d="M73 834q0 29 28 29h66q29 0 29 -30l-5 -413q-2 -105 51 -159t167 -54q112 0 165 54t52 159l-4 413q0 30 28 30h65q28 0 28 -29l-5 -508q-3 -340 -329 -340q-165 0 -246.5 85t-83.5 255zM467 1066q0 15 15 15h76q15 0 15 -15v-76q0 -15 -15 -15h-76q-15 0 -15 15v76z
M242 1066q0 15 15 15h77q15 0 15 -15v-76q0 -15 -15 -15h-77q-15 0 -15 15v76zM332 1304q10 0 18 -9l117 -156q13 -18 -9 -18h-98q-13 0 -18 11l-85 154q-5 8 -1.5 13t11.5 5h65z" />
    <glyph glyph-name="udieresisgrave" unicode="&#x1dc;" horiz-adv-x="596" 
d="M73 522q0 25 24 25h37q25 0 24 -25l-9 -234q-2 -58 5 -91t22.5 -49.5t39 -20.5t53.5 -4q37 0 66 8t49.5 28t31 53t10.5 84l-1 227q0 24 25 24l48 1q24 0 24 -24l1 -498q0 -25 -25 -25l-37 -1q-23 0 -23 25v13q0 17 -7 19.5t-19 -10.5q-58 -61 -147 -61q-192 0 -192 230
v306zM348 750q0 15 15 15h76q15 0 15 -15v-76q0 -15 -15 -15h-76q-15 0 -15 15v76zM123 750q0 15 15 15h77q15 0 15 -15v-76q0 -15 -15 -15h-77q-15 0 -15 15v76zM213 988q10 0 18 -9l117 -156q13 -18 -9 -18h-98q-13 0 -18 11l-85 154q-5 8 -1.5 13t11.5 5h65z" />
    <glyph glyph-name="eturned" unicode="&#x1dd;" horiz-adv-x="630" 
d="M165 187q-13 0 -18 -7.5t-3 -19.5q10 -57 50.5 -90.5t100.5 -33.5q33 0 61 9.5t49.5 26.5t35 40t16.5 50q3 26 -23 26zM73 236q0 25 24 25h337q24 0 24 25q0 43 -9.5 70t-30.5 42t-54.5 20t-82.5 5q-45 0 -92 -2t-78 -10q-12 -3 -20 0.5t-8 17.5l-1 73q0 19 18 28
q21 10 40.5 16t41 9.5t46 4.5t56.5 0q142 -4 209 -71.5t64 -199.5q-2 -68 -19.5 -123.5t-50.5 -95.5t-81.5 -62t-110.5 -22q-41 0 -81 15.5t-71.5 46t-50.5 75.5t-19 104v9z" />
    <glyph glyph-name="Adieresismacron" unicode="&#x1de;" horiz-adv-x="914" 
d="M469 651q-12 34 -23 0l-115 -341q-5 -15 1.5 -24t22.5 -9h204q16 0 22.5 9t1.5 24zM394 838q9 22 33 22h60q24 0 33 -22l318 -805q6 -15 -0.5 -24t-22.5 -9h-117q-26 0 -32 25l-21 94q-6 26 -32 26h-312q-28 0 -33 -23l-17 -98q-5 -24 -32 -24h-120q-17 0 -23.5 9
t-0.5 24zM300 978q0 15 15 15h289q15 0 15 -15v-71q0 -15 -15 -15h-289q-15 0 -15 15v71zM521 1024q0 15 15 15h76q15 0 15 -15v-76q0 -15 -15 -15h-76q-15 0 -15 15v76zM296 1024q0 15 15 15h77q15 0 15 -15v-76q0 -15 -15 -15h-77q-15 0 -15 15v76z" />
    <glyph glyph-name="adieresismacron" unicode="&#x1df;" horiz-adv-x="608" 
d="M270 123q33 0 56.5 4.5t38.5 19t22.5 40.5t7.5 69q0 23 -24 23h-57q-46 0 -76.5 -4.5t-49.5 -14.5t-28 -25.5t-11 -36.5q-1 -8 -0.5 -14.5t3.5 -14.5q6 -16 17 -25t26 -13.5t34 -6t41 -1.5zM299 560q236 0 236 -248v-288q0 -24 -24 -24h-41q-25 0 -25 24v11
q0 17 -7.5 19.5t-19.5 -9.5q-29 -29 -68.5 -44t-93.5 -15q-42 0 -75.5 12.5t-57.5 35t-37 54.5t-13 71q0 186 246 186h102q24 0 24 9q0 63 -38 99.5t-117 40.5q-39 2 -76 -7t-72 -24q-13 -6 -21 -1.5t-8 18.5v21q0 20 20 28q84 31 166 31zM242 659q15 0 15 15v45h118v-45
q0 -15 15 -15h76q6 0 7 1v-27q0 -15 -15 -15h-289q-15 0 -15 15v30q3 -4 11 -4h77zM473 704q0 15 -15 15h-83v31q0 15 15 15h76q15 0 15 -15v-76q0 -11 -8 -14v44zM154 663q-4 3 -4 11v76q0 15 15 15h77q15 0 15 -15v-31h-88q-15 0 -15 -15v-41z" />
    <glyph glyph-name="Gcaron" unicode="&#x1e6;" horiz-adv-x="897" 
d="M692 305q0 17 -18 17h-149q-18 0 -18 18v77q0 17 18 17h282q17 0 17 -17v-320q0 -14 -10 -23q-67 -43 -144.5 -65.5t-167.5 -22.5q-101 0 -180.5 30t-135 87.5t-84.5 140.5t-29 188t33 188t91 140.5t136.5 87.5t168.5 30h36t55.5 -3.5t81.5 -11.5t115 -24q6 -2 8.5 -8
t3.5 -13l12 -78q2 -11 -4.5 -11.5t-17.5 2.5q-67 16 -115.5 24.5t-81.5 12.5t-53 4.5t-30 0.5q-68 0 -124.5 -19t-97 -58.5t-63 -102t-20.5 -149.5q1 -92 12.5 -146t43.5 -81.5t91.5 -35t157.5 -7.5q57 0 101.5 8.5t69.5 26.5q9 7 9 21v75zM309 1108q-13 18 9 18h65
q12 0 18 -10l58 -93q10 -17 21 0l58 93q6 10 18 10h76q10 0 13 -5t-4 -13l-128 -157q-8 -9 -18 -9h-50q-11 0 -18 9z" />
    <glyph glyph-name="gcaron" unicode="&#x1e7;" horiz-adv-x="644" 
d="M437 285q0 100 -40 152.5t-113 52.5q-72 0 -107.5 -52.5t-35.5 -152.5q5 -48 13.5 -76t23.5 -42t39 -17.5t60 -3.5t65.5 3.5t50.5 17.5t32.5 42t11.5 76zM557 68q-4 -129 -20.5 -211.5t-48 -129.5t-78 -64.5t-110.5 -17.5q-84 0 -151 22q-20 6 -20 27v108q0 14 8 18.5
t21 -1.5q32 -14 64 -20.5t64 -6.5q72 0 112 51.5t57 166.5q2 14 4 26t1.5 18.5t-5 6.5t-15.5 -10q-25 -23 -61 -37t-82 -14q-50 0 -91.5 20t-71 56.5t-45.5 88.5t-16 115t16 115t45.5 88.5t71 56.5t91.5 20q98 0 151 -62q11 -13 19 -11.5t10 18.5l2 21q1 21 26 21h42
q25 0 24 -25zM181 782q-13 18 9 18h65q12 0 18 -10l58 -93q10 -17 21 0l58 93q6 10 18 10h76q10 0 13 -5t-4 -13l-128 -157q-8 -9 -18 -9h-50q-11 0 -18 9z" />
    <glyph glyph-name="Oslashacute" unicode="&#x1fe;" horiz-adv-x="932" 
d="M466 207q63 0 114 10t87 35.5t55 69t19 110.5q0 93 -24 163t-69 116l-197 -504h15zM190 432q0 -99 42.5 -149t117.5 -66l234 541q-55 26 -118 26t-114 -24.5t-87 -70t-55.5 -111t-19.5 -146.5zM687 808q78 -57 125 -152t47 -224q0 -102 -31 -184t-84 -140.5t-124.5 -90
t-153.5 -31.5q-51 0 -97 12l-7 -18q-8 -20 -28 -20l-62 2q-31 2 -20 29l20 47q-45 26 -81.5 65t-62.5 89t-40.5 110.5t-14.5 129.5q0 102 30.5 184t84 140.5t125 90t153.5 31.5q84 0 156 -33l26 61q9 20 28 19l24 -1q14 -1 20 -8t1 -20zM419 989q-22 0 -9 18l117 156
q7 9 18 9h65q8 0 11.5 -5t-1.5 -13l-85 -154q-6 -11 -18 -11h-98z" />
    <glyph glyph-name="oslashacute" unicode="&#x1ff;" horiz-adv-x="648" 
d="M337 141q33 1 59.5 7.5t45 22.5t28.5 44.5t10 73.5q0 82 -32 135zM168 289q0 -64 19 -95.5t54 -42.5l143 331q-27 12 -60 12q-72 0 -114 -54t-42 -151zM482 509q45 -36 69 -95.5t24 -140.5q0 -136 -66.5 -211.5t-184.5 -75.5q-24 0 -46 3l-72 -183q-8 -20 -28 -20l-62 2
q-31 2 -20 29l89 206q-54 35 -83 98.5t-29 151.5q0 67 17 120.5t49.5 90.5t79 56.5t105.5 19.5q50 0 88 -13l80 185q9 20 28 19l24 -1q14 -1 20 -8t1 -20zM331 807q-22 0 -9 18l117 156q7 9 18 9h65q8 0 11.5 -5t-1.5 -13l-85 -154q-6 -11 -18 -11h-98z" />
    <glyph glyph-name="Scommaaccent" unicode="&#x218;" horiz-adv-x="773" 
d="M249 -56q-4 25 26 25h77q13 0 18.5 -6t7.5 -19l10 -66q3 -16 -10 -32l-104 -133q-12 -17 -30 -17h-16q-14 0 -20.5 8.5t-1.5 20.5l49 120q7 15 4 32zM648 758q-4 -17 -17.5 -23t-28.5 1q-56 24 -100 36.5t-92 12.5q-97 0 -148 -37t-51 -106q0 -28 8 -49t26.5 -36.5
t50 -27t79.5 -20.5l71 -14q132 -26 193 -87.5t61 -167.5q0 -127 -82.5 -190.5t-246.5 -63.5q-29 0 -62.5 2.5t-69.5 8t-72 14.5t-69 21q-27 9 -25 33l12 144q3 37 35 20q31 -16 65 -27.5t68.5 -19t67 -11t61.5 -3.5q55 0 89 11t53 27.5t25 34t6 31.5q0 17 -6 33.5t-21.5 31
t-43.5 26.5t-72 21l-71 14q-130 25 -189 81t-59 154q0 57 21 102.5t60 77t95.5 48.5t127.5 17q55 0 117 -9t122 -28q13 -2 20 -10.5t4 -20.5z" />
    <glyph glyph-name="scommaaccent" unicode="&#x219;" horiz-adv-x="564" 
d="M190 -59q-4 25 26 25h77q13 0 18.5 -6t7.5 -19l10 -66q3 -16 -10 -32l-104 -133q-12 -17 -30 -17h-16q-14 0 -20.5 8.5t-1.5 20.5l49 120q7 15 4 32zM462 486q0 -14 -7.5 -18.5t-20.5 0.5q-63 26 -136 26q-69 0 -104 -22.5t-35 -64.5q0 -18 6 -31.5t20.5 -24t38.5 -19
t60 -16.5l31 -7q48 -11 81.5 -24.5t54.5 -32.5t30.5 -44t9.5 -59q0 -78 -60 -120.5t-166 -42.5q-81 0 -171 28q-21 6 -21 27v98q0 14 8 19t21 -1q87 -38 165 -38q44 0 65 16t22 36.5t-17 40t-52 27.5l-50 11q-84 19 -121 52t-37 97q0 78 54 119.5t156 41.5q90 0 155 -22
q20 -8 20 -28v-24z" />
    <glyph glyph-name="uni021A" unicode="&#x21a;" horiz-adv-x="875" 
d="M313 -48q-4 25 26 25h77q13 0 18.5 -6t7.5 -19l10 -66q3 -16 -10 -32l-104 -133q-12 -17 -30 -17h-16q-14 0 -20.5 8.5t-1.5 20.5l49 120q7 15 4 32zM73 832q0 28 29 28h670q30 0 30 -28v-40q0 -31 -30 -29l-247 10q-30 2 -28 -30l28 -714q2 -29 -27 -29h-119
q-30 0 -28 29l27 714q2 32 -28 30l-247 -10q-30 -2 -30 29v40z" />
    <glyph glyph-name="uni021B" unicode="&#x21b;" horiz-adv-x="447" 
d="M177 -39q-4 25 26 25h77q13 0 18.5 -6t7.5 -19l10 -66q3 -16 -10 -32l-104 -133q-12 -17 -30 -17h-16q-14 0 -20.5 8.5t-1.5 20.5l49 120q7 15 4 32zM214 683q25 0 24 -25l-3 -86q-1 -25 24 -25h77q24 0 24 -25v-21q0 -24 -24 -24h-78q-25 0 -25 -24l-4 -214
q-1 -45 -0.5 -68.5t8.5 -34t27.5 -11.5t57.5 -1h28q24 0 24 -25v-75q0 -24 -24 -24h-28q-66 0 -106 4t-61 22t-27 54t-3 100l13 273q1 24 -24 24h-20q-21 0 -21 24v21q0 25 24 25h18q23 0 25 24l3 88q1 24 25 24h46z" />
    <glyph glyph-name="uni0228" unicode="&#x228;" horiz-adv-x="700" 
d="M599 204q28 0 28 -28v-148q0 -28 -28 -28h-188q12 0 18 -9q39 -47 43.5 -90t-18.5 -70t-70 -34t-110 18q-8 3 -9.5 9t4.5 12l25 27q9 10 21 4q30 -13 53.5 -12.5t34 14.5t5.5 42t-32 70q-5 8 -2.5 13.5t11.5 5.5h-283q-29 0 -29 28v804q0 28 29 28h486q29 0 29 -28v-21
q0 -29 -29 -29h-370q-28 0 -28 -28v-219q0 -30 28 -30h353q28 0 28 -28v-40q0 -30 -28 -30h-353q-28 0 -28 -28v-145q0 -30 28 -30h381z" />
    <glyph glyph-name="uni0229" unicode="&#x229;" horiz-adv-x="630" 
d="M465 359q13 0 18 7.5t3 19.5q-10 57 -50.5 90.5t-100.5 33.5q-33 0 -61 -9.5t-49.5 -26.5t-35 -40t-16.5 -50q-3 -26 23 -26zM335 560q41 0 81 -15.5t71.5 -46t50.5 -75.5t19 -104v-9q0 -25 -24 -25h-337q-24 0 -24 -25q0 -44 9.5 -70.5t30.5 -41.5t54.5 -20t82.5 -5
q45 0 92 2t78 10q12 3 20 -0.5t8 -17.5l1 -73q0 -19 -18 -28q-36 -17 -69.5 -23.5t-79.5 -6.5q36 -47 39.5 -88.5t-19.5 -68t-69.5 -32.5t-109.5 18q-19 7 -5 21l25 27q9 10 21 4q30 -13 53.5 -12.5t34 14.5t5.5 42t-32 70l-3 6q-253 21 -248 270q1 67 19 123t51.5 96
t81.5 62t110 22z" />
    <glyph glyph-name="uni022A" unicode="&#x22a;" horiz-adv-x="932" 
d="M466 784q-63 0 -114 -24.5t-87 -70t-55.5 -111t-19.5 -146.5q0 -67 19.5 -110.5t55.5 -69t87 -35.5t114 -10t114 10t87 35.5t55 69t19 110.5q0 81 -19 146.5t-55 111t-87 70t-114 24.5zM466 878q82 0 153.5 -31.5t124.5 -90t84 -140.5t31 -184t-31 -184t-84 -140.5
t-124.5 -90t-153.5 -31.5t-153.5 31.5t-125 89.5t-84 140.5t-30.5 184.5t30.5 184t84 140.5t125 90t153.5 31.5zM320 1000q0 15 15 15h289q15 0 15 -15v-71q0 -15 -15 -15h-289q-15 0 -15 15v71zM542 1153q0 15 15 15h76q15 0 15 -15v-76q0 -15 -15 -15h-76q-15 0 -15 15v76
zM317 1153q0 15 15 15h77q15 0 15 -15v-76q0 -15 -15 -15h-77q-15 0 -15 15v76z" />
    <glyph glyph-name="uni022B" unicode="&#x22b;" horiz-adv-x="648" 
d="M324 494q-72 0 -114 -54t-42 -151q0 -48 10.5 -77t31 -45t49.5 -21t65 -5t65 5.5t49 21t31 44.5t11 77q0 94 -42 149.5t-114 55.5zM324 560q118 0 184.5 -75.5t66.5 -211.5t-66.5 -211.5t-184.5 -75.5q-59 0 -105.5 19.5t-79 56.5t-49.5 90t-17 121q0 67 17 120.5
t49.5 90.5t79 56.5t105.5 19.5zM162 704q0 15 15 15h289q15 0 15 -15v-71q0 -15 -15 -15h-289q-15 0 -15 15v71zM383 862q0 15 15 15h76q15 0 15 -15v-76q0 -15 -15 -15h-76q-15 0 -15 15v76zM158 862q0 15 15 15h77q15 0 15 -15v-76q0 -15 -15 -15h-77q-15 0 -15 15v76z
" />
    <glyph glyph-name="uni0241" unicode="&#x241;" horiz-adv-x="600" 
d="M429 546q-30 -32 -48.5 -55.5t-29 -44.5t-14 -44t-3.5 -54l2 -324q0 -29 -30 -29h-93q-30 0 -30 29v279q0 57 2.5 94t11 63.5t25 47.5t45.5 46l58 51q45 39 63.5 72t13.5 65q-7 46 -36.5 74.5t-86.5 28.5q-38 0 -81 -14.5t-89 -42.5q-15 -9 -25.5 -4t-10.5 23v26
q0 24 20 35q98 53 206 53q52 0 94.5 -14.5t72.5 -41t46 -64t16 -83.5q0 -44 -26.5 -83.5t-72.5 -88.5z" />
    <glyph glyph-name="uni0242" unicode="&#x242;" horiz-adv-x="600" 
d="M449 156q-32 -34 -50.5 -55.5t-28.5 -35t-12.5 -22t-1.5 -15.5q2 -17 -0.5 -24t-19.5 -7q-45 0 -71 -0.5t-39 1.5t-16.5 7.5t-4.5 16.5q-1 15 0.5 29t9.5 30.5t25 36.5t47 46l58 51q45 39 63.5 72t13.5 65q-7 46 -36.5 74.5t-86.5 28.5q-38 0 -81 -14.5t-89 -42.5
q-15 -9 -25.5 -4t-10.5 23v26q0 24 20 35q98 53 206 53q52 0 94.5 -14.5t72.5 -41t46 -64t16 -83.5q0 -44 -26.5 -83.5t-72.5 -88.5z" />
    <glyph glyph-name="uni0243" unicode="&#x243;" horiz-adv-x="929" 
d="M538 145q68 0 111.5 23.5t61.5 58t10 73t-44 69.5q-44 38 -139 38h-158q-29 0 -29 -28v-70h207q15 0 15 -15v-40q0 -15 -15 -15h-207v-66q0 -28 29 -28h158zM351 535q0 -30 29 -30h132q169 0 169 130q0 66 -42 106.5t-127 40.5h-132q-29 0 -29 -29v-218zM677 458
q49 -6 83.5 -25.5t55.5 -48.5t30.5 -66t9.5 -77q0 -58 -22 -103t-62.5 -75.5t-98 -46.5t-129.5 -16h-281q-28 0 -28 28v211h-147q-15 0 -15 15v40q0 15 15 15h147v523q0 28 28 28h229q135 0 205.5 -54.5t70.5 -157.5q0 -143 -91 -177q-25 -10 0 -13z" />
    <glyph glyph-name="uni0244" unicode="&#x244;" horiz-adv-x="1142" 
d="M346 422v-2q0 -105 52 -159t166 -54q112 0 164.5 54t52.5 159v2h-435zM1054 496q15 0 15 -15v-44q0 -15 -15 -15h-160l-1 -96q-3 -340 -329 -340q-327 0 -330 340l-1 96h-145q-15 0 -15 15v44q0 15 15 15h144l-4 338q0 29 28 29h66q29 0 29 -30l-4 -337h433l-3 337
q0 30 28 30h65q28 0 28 -29l-3 -338h159z" />
    <glyph glyph-name="uni024B" unicode="&#x24b;" horiz-adv-x="721" 
d="M283 136q36 0 64.5 4.5t49 20.5t31.5 45.5t11 79.5q0 100 -41 155t-113 55t-107.5 -55t-35.5 -155q0 -50 8.5 -79.5t26 -45.5t44 -20.5t62.5 -4.5zM770 -81q9 -11 -1 -21l-128 -124l-4 -4l-15 -14l-27 -26l-5 -4l-23 -21q-14 -12 -30 -12l-84 -1q-26 0 -23 26l37 318
q2 17 -4.5 19.5t-17.5 -10.5q-56 -59 -149 -59q-50 0 -91 20.5t-70 58.5t-45.5 90.5t-16.5 117.5q0 64 16.5 117t45.5 91t70 58.5t91 20.5q97 0 153 -63q24 -27 30 6l4 20q4 22 26 22h39q25 0 24 -25l-36 -687q0 -6 -1 -12.5t1 -11.5l159 175q10 12 21 0z" />
    <glyph glyph-name="uni024C" unicode="&#x24c;" horiz-adv-x="1062" 
d="M618 505q30 0 58.5 8.5t50 23t34.5 35t13 44.5q0 49 -15.5 81t-41 51t-58 26.5t-65.5 7.5h-117q-29 0 -30 -28l-11 -222q-1 -22 19 -27h163zM984 34q8 -15 2.5 -24.5t-22.5 -9.5h-115q-25 0 -34 22l-77 199q-17 45 -36.5 72.5t-43 43t-51.5 21t-62 5.5h-69q-30 0 -29 -28
l24 -307q2 -28 -28 -28h-107q-28 0 -28 28l5 335h-225q-15 0 -15 15v112q0 15 15 15h227l5 327q0 28 28 28h235q130 0 202.5 -61.5t72.5 -186.5q0 -72 -27 -121.5t-75 -75.5q-13 -7 -13 -11.5t12 -12.5q30 -20 64.5 -58t64.5 -98z" />
    <glyph glyph-name="aturned" unicode="&#x250;" horiz-adv-x="608" 
d="M338 423q-33 0 -57 -5t-39 -19t-22 -40t-7 -69q0 -23 24 -23h57q46 0 76.5 4.5t49.5 14.5t28 25.5t11 36.5q1 8 0.5 14.5t-3.5 14.5q-11 31 -42 38.5t-76 7.5zM466 83q13 6 21 1.5t8 -18.5v-21q0 -20 -20 -28q-84 -31 -166 -31q-236 0 -236 248v288q0 24 24 24h41
q25 0 25 -24v-11q0 -17 7.5 -19.5t19.5 9.5q29 29 68.5 44t93.5 15q42 0 75.5 -12.5t57.5 -35t37 -54.5t13 -71q0 -186 -246 -186h-102q-24 0 -24 -9q0 -63 38 -99.5t117 -40.5q39 -2 76 7t72 24z" />
    <glyph glyph-name="ascript" unicode="&#x251;" horiz-adv-x="638" 
d="M290 495q-69 0 -109 -51.5t-43 -145.5v-15t2 -15q13 -63 46.5 -91t101.5 -28q36 0 63 5t45 20t27 43t9 73q0 100 -35 152.5t-107 52.5zM565 547q1 -31 -2 -63t-7 -69.5t-7 -81.5t-3 -98q0 -60 2.5 -98.5t5.5 -61.5t5.5 -34t2.5 -17q0 -24 -24 -24h-41q-25 0 -25 24v14
q0 17 -7.5 19t-18.5 -11q-53 -60 -149 -60q-50 0 -91 20.5t-70.5 58.5t-46 90.5t-16.5 117.5q0 64 16.5 117t46 91t70.5 58.5t91 20.5q48 0 86 -14.5t64 -45.5q11 -13 18.5 -13t8.5 20l1 41q0 24 25 24h41q23 0 24 -25z" />
    <glyph glyph-name="ascriptturned" unicode="&#x252;" horiz-adv-x="638" 
d="M348 495q-72 0 -107 -52.5t-35 -152.5q0 -45 9 -73t27 -43t45 -20t63 -5q34 0 59 7t42.5 21t28.5 36.5t18 54.5q2 8 2 15v15q-3 94 -43 145.5t-109 51.5zM92 235q0 54 -3.5 98t-7 81.5t-6.5 69.5t-2 63q1 25 24 25h41q25 0 25 -24l1 -41q1 -20 8.5 -20t18.5 13
q26 31 64 45.5t86 14.5q49 0 90.5 -20.5t71 -58.5t46 -91t16.5 -117q0 -65 -16.5 -117.5t-46 -90.5t-71 -58.5t-90.5 -20.5q-97 0 -149 60q-11 13 -18.5 11t-7.5 -19v-14q0 -24 -25 -24h-41q-24 0 -24 24q0 6 2.5 17t5.5 34t5.5 61.5t2.5 98.5z" />
    <glyph glyph-name="bhook" unicode="&#x253;" horiz-adv-x="624" 
d="M338 136q43 1 72 15.5t45.5 37t23 51.5t5.5 59q-3 88 -40 137.5t-106 49.5q-72 0 -112 -53.5t-40 -153.5q5 -38 11 -65.5t21 -45t43 -26t77 -6.5zM327 560q49 0 90.5 -20.5t71 -58.5t46 -91t16.5 -117q0 -65 -16.5 -117.5t-46 -90.5t-71 -58.5t-90.5 -20.5q-54 0 -90 7.5
t-60 22t-38 35.5t-24 48q-10 12 -16.5 64t-11 129t-8 171.5t-7.5 192.5l-26 136q-3 18 -1 30.5t21 31.5t60 50.5t115 85.5q3 2 6 -2l50 -67q1 -5 -1 -7l-52 -36q-41 -29 -59.5 -50.5t-24.5 -45.5l-6 -265q-2 -36 24 -9q28 29 64.5 40.5t84.5 11.5z" />
    <glyph glyph-name="oopen" unicode="&#x254;" horiz-adv-x="579" 
d="M73 67q0 14 8 18.5t21 -1.5q61 -27 125 -27q88 0 133.5 58t45.5 158q-7 72 -47 109t-128 41q-32 2 -64 -7t-64 -20q-28 -10 -28 18l-1 90q0 21 18 29q67 27 145 27q61 0 111 -20t85 -57.5t54 -90.5t19 -119q0 -67 -19 -120t-54.5 -90t-86.5 -57t-115 -20q-76 0 -139 25
q-19 7 -19 28v28z" />
    <glyph glyph-name="ccurl" unicode="&#x255;" horiz-adv-x="746" 
 />
    <glyph glyph-name="dtail" unicode="&#x256;" horiz-adv-x="644" 
d="M288 149q36 0 63 5t45 20t27 43t9 73q0 100 -35 152.5t-107 52.5q-69 0 -109 -51.5t-43 -145.5v-15t2 -15q13 -63 46.5 -91t101.5 -28zM717 -91q0 -11 1 -19t-2 -13.5t-11.5 -8.5t-27.5 -3q-31 0 -50.5 0.5t-32 1.5t-18.5 1.5t-10 0.5q-30 0 -48.5 6t-29 16.5t-14.5 24.5
t-4 30q0 42 3 70q-1 1 -1 8v14q0 17 -7.5 19t-18.5 -11q-53 -60 -149 -60q-50 0 -91 20.5t-70.5 58.5t-46 90.5t-16.5 117.5q0 64 16.5 117t46 91t70.5 58.5t91 20.5q48 0 86 -14.5t64 -45.5q11 -13 19 -11.5t8 18.5l7 329q0 24 25 24h41q24 0 24 -25l-9 -799
q0 -23 2.5 -40.5t13 -30.5t31.5 -19.5t57 -6.5q22 0 33 -1.5t15 -4.5t3.5 -9t-0.5 -15z" />
    <glyph glyph-name="dhook" unicode="&#x257;" horiz-adv-x="644" 
d="M288 149q36 0 63 5t45 20t27 43t9 73q0 100 -35 152.5t-107 52.5q-69 0 -109 -51.5t-43 -145.5v-15t2 -15q13 -63 46.5 -91t101.5 -28zM737 971q2 -6 -2 -7l-56 -29q-37 -19 -57.5 -35.5t-31 -34.5t-14 -39.5t-6.5 -50.5l-8 -751q0 -24 -24 -24h-41q-25 0 -25 24v14
q0 17 -7.5 19t-18.5 -11q-53 -60 -149 -60q-50 0 -91 20.5t-70.5 58.5t-46 90.5t-16.5 117.5q0 64 16.5 117t46 91t70.5 58.5t91 20.5q48 0 86 -14.5t64 -45.5q11 -13 19 -11.5t8 18.5l5 246l-7 121q-1 18 3 30.5t25 29.5t65.5 42.5t124.5 69.5q4 4 6 -2z" />
    <glyph glyph-name="ereversed" unicode="&#x258;" horiz-adv-x="630" 
d="M434 358q26 0 23 26q-3 27 -16.5 50t-35 40t-49.5 26.5t-61 9.5q-60 0 -100.5 -33.5t-50.5 -90.5q-2 -12 3 -19.5t18 -7.5zM73 319q0 59 19 104t50.5 75.5t71.5 46t81 15.5q62 0 110.5 -22t81.5 -62t50.5 -96t19.5 -123q3 -132 -64 -199.5t-209 -71.5q-31 -1 -56 -0.5
t-46.5 3.5t-41 9.5t-40.5 17.5q-18 7 -18 28l1 73q0 14 8 17.5t20 0.5q31 -8 78 -10t92 -2q49 0 82.5 5t54.5 20t30.5 41.5t9.5 70.5q0 25 -24 25h-337q-24 0 -24 25v9z" />
    <glyph glyph-name="schwa" unicode="&#x259;" horiz-adv-x="630" 
d="M165 187q-13 0 -18 -7.5t-3 -19.5q10 -57 50.5 -90.5t100.5 -33.5q33 0 61 9.5t49.5 26.5t35 40t16.5 50q3 26 -23 26zM73 236q0 25 24 25h337q24 0 24 25q0 43 -9.5 70t-30.5 42t-54.5 20t-82.5 5q-45 0 -92 -2t-78 -10q-12 -3 -20 0.5t-8 17.5l-1 73q0 19 18 28
q21 10 40.5 16t41 9.5t46 4.5t56.5 0q142 -4 209 -71.5t64 -199.5q-2 -68 -19.5 -123.5t-50.5 -95.5t-81.5 -62t-110.5 -22q-41 0 -81 15.5t-71.5 46t-50.5 75.5t-19 104v9z" />
    <glyph glyph-name="schwahook" unicode="&#x25a;" horiz-adv-x="746" 
 />
    <glyph glyph-name="eopen" unicode="&#x25b;" horiz-adv-x="453" 
d="M146 293q12 6 2 16q-32 23 -48.5 45.5t-14.5 60.5q1 40 16.5 66.5t40 42t55.5 23t62 9t60 0t51 -3.5q8 -1 9.5 -7t-0.5 -14l-9 -28q-3 -10 -7 -13t-14 -3q-23 0 -55.5 5t-62.5 2t-51 -19.5t-21 -59.5q0 -42 29 -63.5t84 -21.5h49q18 0 18 -19v-25q0 -18 -18 -18
q-73 0 -109.5 -19.5t-45.5 -46.5t4.5 -55.5t41 -45.5t63.5 -17.5t72 28.5q8 7 15 2.5t6 -15.5l-7 -76q-1 -16 -16 -21q-21 -7 -49 -11t-58.5 -1.5t-60 12.5t-52.5 30.5t-37.5 53t-14.5 79.5q0 46 14 75t59 53z" />
    <glyph glyph-name="eopenreversed" unicode="&#x25c;" horiz-adv-x="453" 
d="M307 293q45 -24 59 -53t14 -75q0 -47 -14.5 -79.5t-37.5 -52.5t-52.5 -30.5t-60 -12.5t-58.5 1.5t-49 10.5q-15 5 -16 21l-7 76q-1 11 6 15.5t15 -2.5q36 -29 72 -28.5t63.5 17.5t41 45.5t4.5 55.5t-45.5 46.5t-109.5 19.5q-18 0 -18 18v25q0 19 18 19h49q55 0 84 21.5
t29 63.5q0 43 -21 59.5t-51 19.5t-62.5 -2t-55.5 -5q-10 0 -14 3t-7 13l-9 28q-2 8 -0.5 14t9.5 7q21 2 50 3.5t60.5 0t62 -9t55 -23t40.5 -42t17 -66.5q2 -38 -14.5 -60.5t-48.5 -45.5q-10 -10 2 -16z" />
    <glyph glyph-name="eopenreversedhook" unicode="&#x25d;" horiz-adv-x="746" 
 />
    <glyph glyph-name="eopenreversedclosed" unicode="&#x25e;" horiz-adv-x="746" 
 />
    <glyph glyph-name="jdotlessstroke" unicode="&#x25f;" horiz-adv-x="746" 
 />
    <glyph glyph-name="ghook" unicode="&#x260;" horiz-adv-x="746" 
 />
    <glyph glyph-name="gscript" unicode="&#x261;" horiz-adv-x="644" 
d="M437 285q0 100 -40 152.5t-113 52.5q-72 0 -107.5 -52.5t-35.5 -152.5q5 -48 13.5 -76t23.5 -42t39 -17.5t60 -3.5t65.5 3.5t50.5 17.5t32.5 42t11.5 76zM557 68q-4 -129 -20.5 -211.5t-48 -129.5t-78 -64.5t-110.5 -17.5q-84 0 -151 22q-20 6 -20 27v108q0 14 8 18.5
t21 -1.5q32 -14 64 -20.5t64 -6.5q72 0 112 51.5t57 166.5q2 14 4 26t1.5 18.5t-5 6.5t-15.5 -10q-25 -23 -61 -37t-82 -14q-50 0 -91.5 20t-71 56.5t-45.5 88.5t-16 115t16 115t45.5 88.5t71 56.5t91.5 20q98 0 151 -62q11 -13 19 -11.5t10 18.5l2 21q1 21 26 21h42
q25 0 24 -25z" />
    <glyph glyph-name="uni0262" unicode="&#x262;" horiz-adv-x="603" 
d="M450 190q0 11 -10 11h-92q-10 0 -10 10v47q0 11 10 11h172q11 0 11 -11v-195q0 -9 -7 -13q-83 -54 -189 -54q-125 0 -193.5 70.5t-68.5 200.5q0 64 20.5 114.5t55.5 85.5t83 53.5t103 18.5h22t33.5 -2t49.5 -7t70 -15q5 -1 7 -13l7 -47q1 -11 -13 -6q-41 9 -70.5 14.5
t-49.5 8t-32 3t-18 0.5q-42 0 -76.5 -11.5t-59.5 -35.5t-38 -62t-12 -91q1 -56 8 -89t26.5 -50t55.5 -21.5t96 -4.5q34 0 61.5 5.5t42.5 16.5q5 5 5 13v45z" />
    <glyph glyph-name="gammalatinsmall" unicode="&#x263;" horiz-adv-x="746" 
 />
    <glyph glyph-name="ramshorn" unicode="&#x264;" horiz-adv-x="746" 
 />
    <glyph glyph-name="hturned" unicode="&#x265;" horiz-adv-x="641" 
d="M73 535q-1 25 24 25h64q25 0 24 -25l-14 -302q-2 -47 5 -78.5t23 -51t39.5 -27.5t53.5 -8q37 0 66.5 13.5t50 38t31 58t9.5 73.5l-9 284q-1 25 24 25h80q25 0 24 -25l-38 -811q-2 -24 -25 -24h-41q-24 0 -24 25l8 328q1 17 -7 19.5t-20 -10.5q-59 -62 -149 -62
q-94 0 -140.5 57.5t-49.5 172.5z" />
    <glyph glyph-name="hhook" unicode="&#x266;" horiz-adv-x="746" 
 />
    <glyph glyph-name="henghook" unicode="&#x267;" horiz-adv-x="746" 
 />
    <glyph glyph-name="istroke" unicode="&#x268;" horiz-adv-x="287" 
d="M358 325q11 0 11 -11v-44q0 -11 -11 -11h-173q2 -66 8 -126.5t20 -111.5q4 -13 -3.5 -19.5t-19.5 -6.5h-93q-28 0 -24 25q9 63 17 121t13 118h-173q-11 0 -11 11v44q0 11 11 11h176q2 45 1 92.5t-3 102.5q-1 10 6 16t19 6h42q12 0 19 -6.5t5 -18.5q-6 -45 -8 -93t-3 -99
h174zM112 655q-15 0 -15 15l2 73q0 15 15 15l66 1q15 0 15 -15l2 -74q0 -15 -15 -15h-70z" />
    <glyph glyph-name="iotalatin" unicode="&#x269;" horiz-adv-x="600" 
 />
    <glyph glyph-name="uni026A" unicode="&#x26a;" horiz-adv-x="278" 
d="M74 18q16 63 28.5 128t17.5 128t0 123.5t-24 115.5q-3 8 3.5 12t14.5 4h59q20 0 17 -18q-5 -31 -8.5 -74t-4.5 -90.5t0 -97t4 -94t8.5 -80.5t13.5 -56q4 -10 -2 -14.5t-14 -4.5h-96q-9 0 -14 4.5t-3 13.5z" />
    <glyph glyph-name="lmiddletilde" unicode="&#x26b;" horiz-adv-x="525" 
d="M452 468q-3 -41 -15 -73t-30 -52.5t-40.5 -28.5t-45.5 -1q2 -45 5 -87t10 -80q2 -13 7 -19t17 -6h61q25 0 25 -25v-72q0 -24 -25 -24h-165q-23 0 -24 25q-8 97 -5 188t7 178q-33 31 -58 16t-31 -66q-2 -17 -18 -17h-37q-18 0 -17 19q4 48 19.5 80.5t38 49t50 16.5
t55.5 -17q2 67 -2.5 127.5t-20.5 114.5q-4 12 5 18t20 6h52q12 0 16.5 -6.5t6.5 -18.5q9 -63 8 -142.5t-1 -167.5q26 -14 42 3t18 63q1 18 18 18h37q18 0 17 -19z" />
    <glyph glyph-name="lbelt" unicode="&#x26c;" horiz-adv-x="746" 
 />
    <glyph glyph-name="lhookretroflex" unicode="&#x26d;" horiz-adv-x="746" 
 />
    <glyph glyph-name="lezh" unicode="&#x26e;" horiz-adv-x="746" 
 />
    <glyph glyph-name="mturned" unicode="&#x26f;" horiz-adv-x="968" 
d="M431 100q-32 -51 -72 -75.5t-98 -24.5q-43 0 -75.5 16.5t-55 46.5t-34.5 72.5t-13 94.5l-10 315q0 15 15 15h103q15 0 14 -16l-32 -326q0 -72 20.5 -109t77.5 -37q35 0 61.5 14t44.5 38.5t28 57t12 69.5l14 294q0 15 16 15h93q15 0 14 -16l-42 -331q-5 -41 1 -68.5
t21.5 -44.5t39 -24.5t52.5 -7.5q31 0 56 15t42.5 40t27 58.5t9.5 69.5v294q0 15 15 15h105q15 0 14 -15l-33 -517q-2 -15 -16 -15h-59q-15 0 -14 16l4 36q2 11 -3 12.5t-12 -7.5q-29 -36 -66.5 -53t-80.5 -17q-55 0 -98.5 25t-66.5 74q-8 18 -19 1z" />
    <glyph glyph-name="mlonglegturned" unicode="&#x270;" horiz-adv-x="968" 
d="M881 547q15 0 14 -15l-32 -506q2 -51 8.5 -97t17.5 -86q4 -13 -3.5 -19.5t-19.5 -6.5h-93q-28 0 -24 25q8 58 15.5 111t12.5 107q-3 12 -15 -3q-29 -36 -66.5 -53t-80.5 -17q-55 0 -98.5 25t-66.5 74q-8 18 -19 1q-32 -51 -72 -75.5t-98 -24.5q-43 0 -75.5 16.5t-55 46.5
t-34.5 72.5t-13 94.5l-10 315q0 15 15 15h103q15 0 14 -16l-32 -326q0 -72 20.5 -109t77.5 -37q35 0 61.5 14t44.5 38.5t28 57t12 69.5l14 294q0 15 16 15h93q15 0 14 -16l-42 -331q-5 -41 1 -68.5t21.5 -44.5t39 -24.5t52.5 -7.5q31 0 56 15t42.5 40t27 58.5t9.5 69.5v294
q0 15 15 15h105z" />
    <glyph glyph-name="mhook" unicode="&#x271;" horiz-adv-x="746" 
 />
    <glyph glyph-name="nhookleft" unicode="&#x272;" horiz-adv-x="796" 
d="M723 25q3 -25 -24 -25h-98q-25 0 -24 25l18 307q9 155 -111 155q-84 0 -126.5 -46t-35.5 -127l23 -277q1 -13 0 -22.5t-7 -19.5t-19.5 -22t-38 -29t-62 -41t-91.5 -58q-6 -2 -7 2l-46 74q-3 5 2 7l56 34q32 20 51 35t30 31l13 500q0 24 25 24h42q24 0 24 -25v-4
q0 -16 8.5 -20t20.5 5q29 20 66 36t82 16q94 0 139 -57.5t57 -172.5z" />
    <glyph glyph-name="nhookretroflex" unicode="&#x273;" horiz-adv-x="746" 
 />
    <glyph glyph-name="uni0274" unicode="&#x274;" horiz-adv-x="556" 
d="M94 495q1 18 17 18h57q14 0 21 -13l198 -364q6 -11 14 -9.5t8 14.5l9 365q0 17 17 17h31q17 0 17 -17v-489q0 -17 -17 -17h-71q-14 0 -21 13l-202 382q-7 12 -14 10t-6 -16l24 -371q1 -18 -16 -18h-69q-20 0 -18 18z" />
    <glyph glyph-name="obarred" unicode="&#x275;" horiz-adv-x="648" 
d="M324 141q31 0 57 4t45.5 15t32.5 31t18 52h-306q5 -33 18 -53t32.5 -31t45.5 -14.5t57 -3.5zM324 494q-63 0 -103 -42t-50 -117h306q-10 75 -50 117t-103 42zM324 560q118 0 184.5 -75.5t66.5 -211.5t-66.5 -211.5t-184.5 -75.5q-59 0 -105.5 19.5t-79 56.5t-49.5 90
t-17 121q0 67 17 120.5t49.5 90.5t79 56.5t105.5 19.5z" />
    <glyph glyph-name="uni0276" unicode="&#x276;" horiz-adv-x="1345" 
d="M554 118q19 0 39.5 2.5t40.5 7.5t37.5 11.5t29.5 14.5v280l-5 3q-33 20 -68 27.5t-74 7.5q-91 0 -132 -54.5t-39 -160.5q1 -44 8.5 -71t26.5 -42t52 -20.5t84 -5.5zM1022 118q17 0 17 -17v-90q0 -17 -17 -17h-303q-18 0 -18 17v14q-28 -23 -66.5 -31.5t-80.5 -8.5
q-65 0 -111.5 19t-76.5 54t-44 85.5t-14 113.5t16 113.5t47.5 85.5t77.5 54t105 19q42 0 78.5 -4.5t68.5 -18.5q3 12 18 12h296q18 0 18 -17v-13q0 -18 -18 -18h-225q-17 0 -17 -17v-133q0 -18 17 -18h215q17 0 17 -18v-24q0 -18 -17 -18h-215q-17 0 -17 -17v-88
q0 -19 17 -19h232z" />
    <glyph glyph-name="philatin" unicode="&#x278;" horiz-adv-x="746" 
 />
    <glyph glyph-name="rturned" unicode="&#x279;" horiz-adv-x="474" 
d="M73 68q0 14 6.5 17.5t20.5 1.5q9 -2 18.5 -2h22.5q37 0 64 7t44 24t25 46t8 73l-26 290q-3 25 24 25h98q26 0 22 -27q-13 -74 -20.5 -131t-11.5 -111t-4 -112.5t2 -135.5q0 -25 -24 -25h-34q-24 0 -24 20q0 15 -8.5 19t-20.5 -4q-23 -15 -59.5 -29t-81.5 -14h-9.5
t-10.5 1q-20 3 -20 26z" />
    <glyph glyph-name="rlonglegturned" unicode="&#x27a;" horiz-adv-x="474" 
d="M73 59q0 14 6.5 17.5t20.5 1.5q9 -2 18.5 -2h22.5q38 0 65.5 7t45 24t25 46t5.5 73l-26 609q-1 25 24 25h98q26 0 22 -27q-9 -49 -15.5 -114t-10.5 -138t-6.5 -149.5t-3.5 -150t-0.5 -140t2.5 -117.5q1 -25 -24 -25h-34q-24 0 -24 20q0 15 -8.5 19t-20.5 -4
q-23 -15 -59.5 -29t-81.5 -14h-9.5t-10.5 1q-20 3 -20 26z" />
    <glyph glyph-name="rhookturned" unicode="&#x27b;" horiz-adv-x="746" 
 />
    <glyph glyph-name="rhook" unicode="&#x27d;" horiz-adv-x="746" 
 />
    <glyph glyph-name="rfishhook" unicode="&#x27e;" horiz-adv-x="746" 
 />
    <glyph glyph-name="uni0280" unicode="&#x280;" horiz-adv-x="560" 
d="M176 476q-16 0 -18 -17l-7 -135q-2 -17 18 -17h78q21 0 40.5 4.5t35 13.5t25 21.5t9.5 28.5q0 30 -9.5 49.5t-25 31t-35 16t-40.5 4.5h-71zM346 238q18 -12 39 -35.5t39 -59.5l61 -122q5 -9 1.5 -15t-13.5 -6h-71q-14 0 -20 14l-47 120q-11 28 -22.5 45t-25.5 26.5
t-31 12.5t-38 3h-43q-19 0 -17 -17l14 -187q2 -17 -17 -17h-64q-18 0 -18 17l8 489q0 17 17 17h143q79 0 123 -37t44 -113q0 -45 -16.5 -74.5t-45.5 -45.5q-15 -8 0 -15z" />
    <glyph glyph-name="Rsmallinverted" unicode="&#x281;" horiz-adv-x="560" 
d="M247 49q20 0 39.5 4.5t35 16t25 31t9.5 49.5q0 16 -9.5 28.5t-25 21.5t-35 13.5t-39.5 4.5h-79q-20 0 -18 -17l7 -135q2 -17 18 -17h72zM345 287q-8 -5 -8 -7.5t8 -7.5q29 -17 45.5 -46t16.5 -74q0 -76 -44 -113.5t-123 -37.5h-143q-17 0 -17 17l-8 490q0 17 18 17h65
q19 0 17 -17l-15 -187q-2 -17 18 -17h42q21 0 38 3t31 12t25.5 26t22.5 45l47 122q6 13 21 13h70q11 0 14 -6t-2 -15l-61 -122q-18 -36 -39 -59.5t-39 -35.5z" />
    <glyph glyph-name="shook" unicode="&#x282;" horiz-adv-x="746" 
 />
    <glyph glyph-name="esh" unicode="&#x283;" horiz-adv-x="746" 
d="M727 777q-3 -9 -5.5 -13t-11 -4t-28 3t-57.5 9q-10 1 -23.5 1t-27 -3t-25.5 -8.5t-18 -15.5q-28 -43 -40.5 -106.5t-17 -139t-5.5 -157.5t-6 -161t-18.5 -150.5t-43 -125t-79 -85.5t-126.5 -32q-68 0 -100 4.5t-42.5 14t-5.5 23t11 31.5q7 21 12 32.5t11.5 15t16.5 2
t27 -5.5q45 -11 86 3.5t73 50.5q28 31 43 83.5t23 117t11.5 136.5t8 143t13 136.5t26 116.5t47 84t76.5 38q23 3 57.5 1.5t66.5 -7t53.5 -13.5t17.5 -19z" />
    <glyph glyph-name="dotlessjstrokehook" unicode="&#x284;" horiz-adv-x="746" 
 />
    <glyph glyph-name="tretroflexhook" unicode="&#x288;" horiz-adv-x="746" 
 />
    <glyph glyph-name="ubar" unicode="&#x289;" horiz-adv-x="596" 
d="M152 367l-3 -79q-2 -58 5 -91t22.5 -49.5t39 -20.5t53.5 -4q36 0 65.5 8t49.5 28t31 53t11 84v71h-274zM531 437q15 0 15 -15v-40q0 -15 -15 -15h-9l1 -341q0 -25 -25 -25l-37 -1q-23 0 -23 25v13q0 17 -7 19.5t-19 -10.5q-58 -61 -147 -61q-192 0 -192 230v151h-12
q-15 0 -15 15v40q0 15 15 15h12v85q0 25 24 25h37q25 0 24 -25l-3 -85h270v86q0 24 25 24l48 1q24 0 24 -24v-87h9z" />
    <glyph glyph-name="upsilonlatin" unicode="&#x28a;" horiz-adv-x="978" 
d="M839 592q-8 0 -11.5 -5t1.5 -13q24 -44 35 -95.5t11 -112.5q0 -102 -31 -184t-84 -140.5t-124.5 -90t-153.5 -31.5t-153.5 31.5t-125 90t-84 140.5t-30.5 184q0 60 18 111t47 96q11 18 -9 18h-57q-15 0 -15 15v117q0 15 15 15h335q15 0 15 -15v-118q0 -15 -15 -16
q-50 -4 -90.5 -17.5t-68.5 -39.5t-43 -67t-15 -99q0 -81 19.5 -146.5t55.5 -111t87 -70t114 -24.5t114 24.5t87 70t55 111t19 146.5q0 57 -14 96.5t-40.5 66t-64 40.5t-85.5 19q-14 2 -14 15v134h1v1q0 1 15 1h335q15 0 15 -15v-117q0 -15 -15 -15h-51z" />
    <glyph glyph-name="vhook" unicode="&#x28b;" horiz-adv-x="746" 
 />
    <glyph glyph-name="vturned" unicode="&#x28c;" horiz-adv-x="683" 
d="M268 527q8 20 28 20h90q20 0 28 -20l193 -499q5 -13 0 -20.5t-19 -7.5h-45q-20 0 -29 19l-157 343q-7 15 -16 15t-16 -15l-157 -343q-9 -19 -28 -19h-45q-14 0 -19.5 7.5t-0.5 20.5z" />
    <glyph glyph-name="wturned" unicode="&#x28d;" horiz-adv-x="862" 
d="M212 526q6 21 27 21h79q20 0 28 -18l69 -156q7 -16 16 -16t16 16l65 155q7 19 28 19h84q21 0 27 -21l137 -499q7 -27 -21 -27h-40q-21 0 -27 21l-101 320q-5 16 -14.5 16.5t-17.5 -13.5l-73 -127q-9 -17 -29 -17h-72q-20 0 -29 17l-68 127q-8 15 -17.5 14t-14.5 -17
l-102 -320q-8 -21 -27 -21h-40q-29 0 -21 27z" />
    <glyph glyph-name="yturned" unicode="&#x28e;" horiz-adv-x="686" 
d="M294 598q29 75 58.5 121.5t59 72.5t60 35t60.5 9h57q24 0 24 -24v-75q0 -24 -24 -24h-38q-26 0 -53 -18t-51 -46t-43.5 -62t-30.5 -67q-2 -7 -3.5 -15.5t3.5 -17.5l213 -456q6 -13 0.5 -21t-19.5 -8h-44q-18 0 -29 17l-165 271q-8 13 -17.5 12.5t-16.5 -14.5l-125 -268
q-9 -18 -28 -18h-47q-14 0 -19.5 7.5t-0.5 20.5z" />
    <glyph glyph-name="uni028F" unicode="&#x28f;" horiz-adv-x="648" 
d="M75 593q-5 11 -0.5 17.5t16.5 6.5h46q16 0 24 -14l150 -275q6 -11 14 -11t14 11l148 275q8 14 24 14h46q26 0 15 -24l-187 -369q-4 -8 -5.5 -13.5t-0.5 -13.5l17 -177q0 -20 -22 -20h-105q-10 0 -16 5t-5 15l17 177q1 8 -0.5 13.5t-5.5 13.5z" />
    <glyph glyph-name="zretroflexhook" unicode="&#x290;" horiz-adv-x="746" 
 />
    <glyph glyph-name="zcurl" unicode="&#x291;" horiz-adv-x="746" 
 />
    <glyph glyph-name="ezh" unicode="&#x292;" horiz-adv-x="746" 
 />
    <glyph glyph-name="glottalstop" unicode="&#x294;" horiz-adv-x="600" 
d="M429 546q-30 -32 -48.5 -55.5t-29 -44.5t-14 -44t-3.5 -54l2 -324q0 -29 -30 -29h-93q-30 0 -30 29v279q0 57 2.5 94t11 63.5t25 47.5t45.5 46l58 51q45 39 63.5 72t13.5 65q-7 46 -36.5 74.5t-86.5 28.5q-38 0 -81 -14.5t-89 -42.5q-15 -9 -25.5 -4t-10.5 23v26
q0 24 20 35q98 53 206 53q52 0 94.5 -14.5t72.5 -41t46 -64t16 -83.5q0 -44 -26.5 -83.5t-72.5 -88.5z" />
    <glyph glyph-name="glottalstopreversed" unicode="&#x295;" horiz-adv-x="600" 
d="M171 546q-47 49 -73 88.5t-26 83.5q0 46 16 83.5t46 64t72 41t95 14.5q108 0 206 -53q20 -11 20 -35v-26q0 -18 -10.5 -23t-25.5 4q-46 28 -89 42.5t-81 14.5q-57 0 -86.5 -28.5t-36.5 -74.5q-5 -32 13.5 -65t63.5 -72l58 -51q28 -25 45 -46t25.5 -47.5t11 -63.5t2.5 -94
v-279q0 -29 -30 -29h-93q-30 0 -30 29l2 324q0 31 -3.5 54t-14 44t-29 44.5t-48.5 55.5z" />
    <glyph glyph-name="bilabialclick" unicode="&#x298;" horiz-adv-x="932" 
d="M418 534q0 15 15 15l66 1q15 0 15 -15l2 -74q0 -15 -15 -15h-70q-15 0 -15 15zM466 784q-63 0 -114 -24.5t-87 -70t-55.5 -111t-19.5 -146.5q0 -67 19.5 -110.5t55.5 -69t87 -35.5t114 -10t114 10t87 35.5t55 69t19 110.5q0 81 -19 146.5t-55 111t-87 70t-114 24.5z
M466 878q82 0 153.5 -31.5t124.5 -90t84 -140.5t31 -184t-31 -184t-84 -140.5t-124.5 -90t-153.5 -31.5t-153.5 31.5t-125 89.5t-84 140.5t-30.5 184.5t30.5 184t84 140.5t125 90t153.5 31.5z" />
    <glyph glyph-name="uni0299" unicode="&#x299;" horiz-adv-x="525" 
d="M162 246q-18 0 -18 -18v-124q0 -18 18 -18h96q42 0 68.5 14.5t37.5 35.5t6 44.5t-27 42.5q-26 23 -85 23h-96zM162 474q-18 0 -18 -18v-133q0 -18 18 -18h80q103 0 103 79q0 40 -25.5 65t-77.5 25h-80zM73 504q0 17 18 17h139q81 0 124.5 -33t43.5 -96q0 -87 -55 -108
q-15 -6 0 -7q60 -8 84.5 -45t24.5 -88q0 -70 -51 -108t-139 -38h-171q-18 0 -18 17v489z" />
    <glyph glyph-name="Gsmallhook" unicode="&#x29b;" horiz-adv-x="686" 
d="M577 645q0 -3 -3 -4q-29 -12 -48.5 -19t-33.5 -17.5t-23 -28.5t-16 -51q19 -3 43 -7.5t55 -12.5q5 -1 7 -13l7 -47q1 -11 -13 -6q-41 9 -70.5 14.5t-49.5 8t-32 3t-18 0.5q-42 0 -76.5 -11.5t-59.5 -35.5t-38 -62t-12 -91q1 -56 8 -89t26.5 -50t55.5 -21.5t96 -4.5
q34 0 61.5 5.5t42.5 16.5q5 5 5 13v45q0 11 -10 11h-92q-10 0 -10 10v47q0 11 10 11h172q11 0 11 -11v-195q0 -9 -7 -13q-83 -54 -189 -54q-125 0 -193.5 70.5t-68.5 200.5q0 64 20.5 114.5t55.5 85.5t83 53.5t103 18.5h9q12 51 20 79.5t14.5 43t14 18.5t19.5 7l106 23
q2 0 4 -3z" />
    <glyph glyph-name="uni029C" unicode="&#x29c;" horiz-adv-x="552" 
d="M79 505q0 17 18 17h39q18 0 18 -17v-240q0 -18 17 -18h208q18 0 18 18v240q0 17 17 17h40q18 0 18 -17l5 -489q0 -17 -16 -17h-47q-17 0 -17 17v115q0 18 -18 18h-208q-17 0 -17 -18v-115q0 -17 -18 -17h-46q-18 0 -18 17z" />
    <glyph glyph-name="jcrossedtail" unicode="&#x29d;" horiz-adv-x="746" 
 />
    <glyph glyph-name="uni029F" unicode="&#x29f;" horiz-adv-x="488" 
d="M80 506q0 17 18 17h36q18 0 18 -17l-5 -364q0 -18 18 -18h233q18 0 17 -18l-5 -89q-2 -17 -17 -17h-302q-18 0 -18 17z" />
    <glyph glyph-name="glottalstopstroke" unicode="&#x2a1;" horiz-adv-x="657" 
d="M558 338q15 0 15 -15v-40q0 -15 -15 -15h-168l2 -244q0 -29 -30 -29h-93q-30 0 -30 29v244h-151q-15 0 -15 15v40q0 15 15 15h151q1 46 4.5 76.5t12 54t24.5 42.5t43 43l58 51q45 39 63.5 72t13.5 65q-7 46 -36.5 74.5t-86.5 28.5q-38 0 -81 -14.5t-89 -42.5
q-15 -9 -25.5 -4t-10.5 23v26q0 24 20 35q98 53 206 53q52 0 94.5 -14.5t72.5 -41t46 -64t16 -83.5q0 -44 -26.5 -83.5t-72.5 -88.5q-30 -32 -48.5 -55.5t-29 -44.5t-14 -44t-3.5 -54v-10h168z" />
    <glyph glyph-name="glottalstopstrokereversed" unicode="&#x2a2;" horiz-adv-x="657" 
d="M569 338q15 0 15 -15v-40q0 -15 -15 -15h-151v-244q0 -29 -30 -29h-93q-30 0 -30 29l2 244h-168q-15 0 -15 15v40q0 15 15 15h168v10q0 31 -3.5 54t-14 44t-29 44.5t-48.5 55.5q-47 49 -73 88.5t-26 83.5q0 46 16 83.5t46 64t72 41t95 14.5q108 0 206 -53q20 -11 20 -35
v-26q0 -18 -10.5 -23t-25.5 4q-46 28 -89 42.5t-81 14.5q-57 0 -86.5 -28.5t-36.5 -74.5q-5 -32 13.5 -65t63.5 -72l58 -51q26 -23 42 -42.5t25 -42.5t12.5 -54t4.5 -77h151z" />
    <glyph glyph-name="dezh" unicode="&#x2a4;" horiz-adv-x="746" 
 />
    <glyph glyph-name="tesh" unicode="&#x2a7;" horiz-adv-x="746" 
 />
    <glyph glyph-name="uni02BC" unicode="&#x2bc;" horiz-adv-x="600" 
 />
    <glyph glyph-name="circumflex" unicode="&#x2c6;" horiz-adv-x="486" 
d="M195 791q7 9 18 9h50q10 0 18 -9l128 -157q7 -8 4 -13t-13 -5h-76q-12 0 -18 10l-58 93q-11 16 -21 0l-58 -93q-6 -10 -18 -10h-65q-22 0 -9 18z" />
    <glyph glyph-name="caron" unicode="&#x2c7;" horiz-adv-x="486" 
d="M77 782q-13 18 9 18h65q12 0 18 -10l58 -93q10 -17 21 0l58 93q6 10 18 10h76q10 0 13 -5t-4 -13l-128 -157q-8 -9 -18 -9h-50q-11 0 -18 9z" />
    <glyph glyph-name="breve" unicode="&#x2d8;" horiz-adv-x="469" 
d="M126 797q14 0 17 -13q16 -60 92 -60q75 0 92 60q4 13 17 13h38q16 0 15 -16q-9 -69 -52 -101.5t-110 -32.5t-110 32.5t-52 101.5q-1 16 15 16h38z" />
    <glyph glyph-name="dotaccent" unicode="&#x2d9;" horiz-adv-x="246" 
d="M75 743q0 15 15 15l66 1q15 0 15 -15l2 -74q0 -15 -15 -15h-70q-15 0 -15 15z" />
    <glyph glyph-name="ring" unicode="&#x2da;" horiz-adv-x="414" 
d="M294 744q0 36 -24.5 61.5t-62.5 25.5t-62.5 -24.5t-24.5 -62.5t24.5 -62.5t62.5 -24.5t62.5 25.5t24.5 61.5zM365 744q0 -33 -12.5 -62t-33.5 -50t-50 -33.5t-62 -12.5t-62 12.5t-50 33.5t-33.5 50t-12.5 62t12.5 62t33.5 50t50 33.5t62 12.5t62 -12.5t50 -33.5t33.5 -50
t12.5 -62z" />
    <glyph glyph-name="ogonek" unicode="&#x2db;" horiz-adv-x="354" 
d="M161 0q9 0 11.5 -5.5t-2.5 -13.5q-27 -42 -32 -70t5.5 -42t34 -14.5t53.5 12.5q12 6 21 -4l25 -27q14 -14 -5 -21q-63 -25 -110 -18t-70 34t-18.5 70t43.5 90q6 9 18 9h26z" />
    <glyph glyph-name="tilde" unicode="&#x2dc;" horiz-adv-x="467" 
d="M231 669q-36 50 -63.5 42.5t-33.5 -58.5q-2 -14 -15 -14h-32q-15 0 -14 16q3 46 19 75.5t39 41.5t50.5 6t53.5 -31l28 -27q30 -29 49 -17.5t21 59.5q1 15 15 15h32q15 0 14 -16q-3 -47 -20 -79t-41 -46t-51 -7t-51 40z" />
    <glyph glyph-name="hungarumlaut" unicode="&#x2dd;" horiz-adv-x="489" 
d="M323 789q5 11 18 11h53q21 0 10 -18l-103 -156q-6 -10 -18 -10h-34q-8 0 -11.5 5t1.5 13zM161 789q5 11 17 11h50q9 0 12 -5t-2 -13l-92 -156q-6 -10 -18 -10h-35q-20 0 -11 18z" />
    <glyph glyph-name="hookabovecomb" unicode="&#x309;" horiz-adv-x="0" 
d="M362 568q0 -10 -10 -10h-32q-11 0 -11 10v21q0 20 5.5 34.5t24.5 31.5l20 18q30 27 27 48q-3 16 -13 26t-30 10q-27 0 -59 -20q-13 -7 -13 7v9q0 8 7 12q34 19 72 19q37 0 58.5 -19.5t21.5 -51.5q0 -16 -8.5 -30t-25.5 -31q-20 -22 -27 -34.5t-7 -34.5v-15z" />
    <glyph glyph-name="horncomb" unicode="&#x31b;" horiz-adv-x="0" 
d="M79 468q-4 9 -5.5 13t2 7t13.5 7t30 13q15 7 17 27t-0.5 41t-3.5 37.5t8 15.5l27 -2q12 -1 15 -8.5t3 -25.5q0 -30 -3 -52t-11 -39.5t-23 -31.5t-39 -28q-8 -5 -12 -5.5t-5.5 1t-2 5t-1.5 6.5z" />
    <glyph glyph-name="dotbelowcomb" unicode="&#x323;" horiz-adv-x="0" 
d="M73 83q0 13 15 15l70 4q15 1 15 -15v-72q0 -15 -15 -15h-70q-15 0 -15 15v68z" />
    <glyph glyph-name="commaaccentcomb" unicode="&#x326;" horiz-adv-x="0" 
d="M118 97q-4 25 26 25h77q13 0 18.5 -6t7.5 -19l10 -66q3 -16 -10 -32l-104 -133q-12 -17 -30 -17h-16q-14 0 -20.5 8.5t-1.5 20.5l49 120q7 15 4 32z" />
    <glyph glyph-name="circumflexbelowcomb" unicode="&#x32d;" horiz-adv-x="0" 
d="M195 -45q7 9 18 9h50q10 0 18 -9l128 -157q7 -8 4 -13t-13 -5h-76q-12 0 -18 10l-58 93q-11 16 -21 0l-58 -93q-6 -10 -18 -10h-65q-22 0 -9 18z" />
    <glyph glyph-name="macronbelowcomb" unicode="&#x331;" horiz-adv-x="0" 
d="M80 -66q3 22 26 22l214 4q25 0 22 -26l-5 -36q-3 -23 -26 -23l-214 -4q-28 0 -23 26z" />
    <glyph glyph-name="beta" unicode="&#x3b2;" horiz-adv-x="767" 
d="M278 145q57 0 94.5 23.5t52.5 58t6.5 73t-44.5 69.5q-23 20 -54.5 29t-54.5 9q-11 0 -16.5 7t-7.5 19t-2 27v30t8 15h7q72 0 113 32t41 98t-42 106.5t-127 40.5h-34q-29 0 -29 -29v-580q0 -28 29 -28h60zM417 458q38 -6 66 -25.5t46.5 -48.5t27.5 -66t9 -77
q0 -58 -21.5 -103t-59 -75.5t-89 -46.5t-112.5 -16h-100l7 -241q0 -18 -15 -15l-99 20q-8 2 -11 4.5t-3 10.5l10 263v790q0 28 28 28h131q135 0 205.5 -54.5t70.5 -157.5q0 -143 -91 -177q-14 -5 -14 -8t14 -5z" />
    <glyph glyph-name="theta" unicode="&#x3b8;" horiz-adv-x="741" 
d="M364 200q81 0 125.5 62t61.5 191h-353q7 -132 46 -192.5t120 -60.5zM376 820q-85 0 -129.5 -67t-49.5 -199h359q-5 132 -50 199t-130 67zM376 913q145 0 218.5 -118.5t73.5 -362.5q0 -220 -78.5 -333t-225.5 -113q-146 0 -221 113t-70 333q6 245 82 363t221 118z" />
    <glyph glyph-name="pi" unicode="&#x3c0;" horiz-adv-x="739" 
d="M635 448q-6 -11 -14 -11h-50q-12 0 -14 -11q-24 -119 -41 -190.5t-19 -110.5t14 -53.5t57 -20.5q9 -2 15 -3t5 -17l-7 -62q-2 -11 -9 -11q-43 1 -77 7t-57 20t-33.5 38t-6.5 61q1 6 5.5 33.5t12.5 72t20.5 102.5t29.5 124q2 9 -2.5 15.5t-13.5 6.5h-126q-13 0 -14 -12
l-67 -385q-5 -29 -22.5 -42t-36 -12.5t-31.5 14.5t-8 40l72 385q1 7 -6.5 11.5t-18 5.5t-20 -3t-12.5 -14q-10 -31 -14.5 -38t-10.5 -7h-46q-8 0 -12.5 6t-2.5 14q7 34 20.5 57.5t38.5 38t66 20.5t104 6h338q21 0 23.5 -6t-1.5 -14z" />
    <glyph glyph-name="chi" unicode="&#x3c7;" horiz-adv-x="870" 
d="M125 826q-8 15 -2.5 24.5t22.5 9.5h103q24 0 35 -20l161 -281q8 -14 20 -14.5t20 14.5l162 281q11 20 35 20h62q17 0 22.5 -9.5t-2.5 -24.5l-202 -375q-6 -11 -6.5 -20t7.5 -20l268 -376q10 -14 5 -24.5t-23 -10.5h-175q-23 0 -35 20l-147 242q-9 14 -19.5 14t-19.5 -14
l-149 -242q-12 -20 -35 -20h-134q-19 0 -24 10t7 25l266 347q15 19 3 40z" />
    <glyph glyph-name="uni0401" unicode="&#x401;" horiz-adv-x="700" 
d="M73 832q0 28 29 28h486q29 0 29 -28v-21q0 -29 -29 -29h-370q-28 0 -28 -28v-219q0 -30 28 -30h353q28 0 28 -28v-40q0 -30 -28 -30h-353q-28 0 -28 -28v-145q0 -30 28 -30h381q28 0 28 -28v-148q0 -28 -28 -28h-497q-29 0 -29 28v804zM394 1049q0 15 15 15h76
q15 0 15 -15v-76q0 -15 -15 -15h-76q-15 0 -15 15v76zM169 1049q0 15 15 15h77q15 0 15 -15v-76q0 -15 -15 -15h-77q-15 0 -15 15v76z" />
    <glyph glyph-name="uni0402" unicode="&#x402;" 
 />
    <glyph glyph-name="uni0403" unicode="&#x403;" 
d="M277 839q8 0 11.5 -5t-1.5 -13l-85 -154q-6 -11 -18 -11h-98q-22 0 -9 18l117 156q7 9 18 9h65z" />
    <glyph glyph-name="uni0404" unicode="&#x404;" 
 />
    <glyph glyph-name="uni0405" unicode="&#x405;" horiz-adv-x="773" 
d="M648 758q-4 -17 -17.5 -23t-28.5 1q-56 24 -100 36.5t-92 12.5q-97 0 -148 -37t-51 -106q0 -28 8 -49t26.5 -36.5t50 -27t79.5 -20.5l71 -14q132 -26 193 -87.5t61 -167.5q0 -127 -82.5 -190.5t-246.5 -63.5q-29 0 -62.5 2.5t-69.5 8t-72 14.5t-69 21q-27 9 -25 33
l12 144q3 37 35 20q31 -16 65 -27.5t68.5 -19t67 -11t61.5 -3.5q55 0 89 11t53 27.5t25 34t6 31.5q0 17 -6 33.5t-21.5 31t-43.5 26.5t-72 21l-71 14q-130 25 -189 81t-59 154q0 57 21 102.5t60 77t95.5 48.5t127.5 17q55 0 117 -9t122 -28q13 -2 20 -10.5t4 -20.5z" />
    <glyph glyph-name="uni0406" unicode="&#x406;" horiz-adv-x="361" 
d="M74 29q27 103 48 210t29 211.5t-0.5 204t-40.5 189.5q-4 11 6 18.5t24 7.5h97q14 0 22 -8t6 -22q-8 -51 -13.5 -121t-7.5 -149t-1 -160.5t6 -154.5t14 -132t23 -92q6 -15 -3.5 -23t-23.5 -8h-157q-15 0 -23.5 7t-4.5 22z" />
    <glyph glyph-name="uni0407" unicode="&#x407;" horiz-adv-x="361" 
d="M74 29q27 103 48 210t29 211.5t-0.5 204t-40.5 189.5q-4 11 6 18.5t24 7.5h97q14 0 22 -8t6 -22q-8 -51 -13.5 -121t-7.5 -149t-1 -160.5t6 -154.5t14 -132t23 -92q6 -15 -3.5 -23t-23.5 -8h-157q-15 0 -23.5 7t-4.5 22zM247 1063q0 15 15 15h76q15 0 15 -15v-76
q0 -15 -15 -15h-76q-15 0 -15 15v76zM22 1063q0 15 15 15h77q15 0 15 -15v-76q0 -15 -15 -15h-77q-15 0 -15 15v76z" />
    <glyph glyph-name="uni0408" unicode="&#x408;" horiz-adv-x="523" 
d="M328 870q2 29 30 28l65 -5q28 -2 27 -30l-36 -788q-3 -78 -20.5 -132t-50.5 -87.5t-82.5 -49.5t-117.5 -17l-40 4q-26 3 -29 30l-1 130q0 32 32 26l10 -2q10 -2 17 -3.5t18 0.5q34 4 58 15t40 26t24 32t9 35z" />
    <glyph glyph-name="uni0409" unicode="&#x409;" 
 />
    <glyph glyph-name="uni040A" unicode="&#x40a;" 
 />
    <glyph glyph-name="uni040B" unicode="&#x40b;" 
 />
    <glyph glyph-name="uni040C" unicode="&#x40c;" 
d="M277 839q8 0 11.5 -5t-1.5 -13l-85 -154q-6 -11 -18 -11h-98q-22 0 -9 18l117 156q7 9 18 9h65z" />
    <glyph glyph-name="uni040E" unicode="&#x40e;" 
d="M126 797q14 0 17 -13q16 -60 92 -60q75 0 92 60q4 13 17 13h38q16 0 15 -16q-9 -69 -52 -101.5t-110 -32.5t-110 32.5t-52 101.5q-1 16 15 16h38z" />
    <glyph glyph-name="uni040F" unicode="&#x40f;" 
 />
    <glyph glyph-name="uni0410" unicode="&#x410;" horiz-adv-x="914" 
d="M469 651q-12 34 -23 0l-115 -341q-5 -15 1.5 -24t22.5 -9h204q16 0 22.5 9t1.5 24zM394 838q9 22 33 22h60q24 0 33 -22l318 -805q6 -15 -0.5 -24t-22.5 -9h-117q-26 0 -32 25l-21 94q-6 26 -32 26h-312q-28 0 -33 -23l-17 -98q-5 -24 -32 -24h-120q-17 0 -23.5 9
t-0.5 24z" />
    <glyph glyph-name="uni0411" unicode="&#x411;" 
 />
    <glyph glyph-name="uni0412" unicode="&#x412;" horiz-adv-x="767" 
d="M218 407q-29 0 -29 -28v-206q0 -28 29 -28h158q68 0 111.5 23.5t61.5 58t10 73t-44 69.5q-44 38 -139 38h-158zM218 782q-29 0 -29 -29v-218q0 -30 29 -30h132q169 0 169 130q0 66 -42 106.5t-127 40.5h-132zM73 832q0 28 28 28h229q135 0 205.5 -54.5t70.5 -157.5
q0 -143 -91 -177q-25 -10 0 -13q49 -6 83.5 -25.5t55.5 -48.5t30.5 -66t9.5 -77q0 -58 -22 -103t-62.5 -75.5t-98 -46.5t-129.5 -16h-281q-28 0 -28 28v804z" />
    <glyph glyph-name="uni0413" unicode="&#x413;" 
 />
    <glyph glyph-name="uni0414" unicode="&#x414;" 
 />
    <glyph glyph-name="uni0415" unicode="&#x415;" horiz-adv-x="700" 
d="M73 832q0 28 29 28h486q29 0 29 -28v-21q0 -29 -29 -29h-370q-28 0 -28 -28v-219q0 -30 28 -30h353q28 0 28 -28v-40q0 -30 -28 -30h-353q-28 0 -28 -28v-145q0 -30 28 -30h381q28 0 28 -28v-148q0 -28 -28 -28h-497q-29 0 -29 28v804z" />
    <glyph glyph-name="uni0416" unicode="&#x416;" 
 />
    <glyph glyph-name="uni0417" unicode="&#x417;" 
 />
    <glyph glyph-name="uni0418" unicode="&#x418;" horiz-adv-x="820" 
d="M747 29q2 -29 -28 -29h-113q-30 0 -28 29l41 611q1 11 -2.5 17.5t-8.5 8t-11.5 -2.5t-11.5 -14l-332 -628q-11 -21 -34 -21h-117q-29 0 -29 28v804q0 28 29 28h50q29 0 29 -28l15 -600q1 -21 12.5 -24.5t22.5 16.5l326 598q10 21 34 21h94q27 0 29 -29z" />
    <glyph glyph-name="uni0419" unicode="&#x419;" 
 />
    <glyph glyph-name="uni041A" unicode="&#x41a;" 
 />
    <glyph glyph-name="uni041B" unicode="&#x41b;" 
 />
    <glyph glyph-name="uni041C" unicode="&#x41c;" horiz-adv-x="949" 
d="M115 832q1 28 29 28h120q27 0 34 -22l157 -444q6 -17 18.5 -17t19.5 17l169 444q9 22 33 22h109q29 0 30 -28l42 -803q2 -29 -29 -29h-100q-29 0 -29 29l-8 618q0 9 -4 14.5t-9.5 6.5t-10.5 -2.5t-7 -12.5l-127 -504q-3 -13 -12 -18.5t-21 -5.5h-90q-27 0 -33 24
l-127 504q-2 9 -7.5 12.5t-10.5 2.5t-9 -6.5t-4 -14.5l-8 -618q0 -29 -29 -29h-100q-30 0 -28 29z" />
    <glyph glyph-name="uni041D" unicode="&#x41d;" horiz-adv-x="811" 
d="M83 831q0 29 30 29h63q30 0 30 -29v-395q0 -29 28 -29h342q30 0 30 29v395q0 29 28 29h65q29 0 29 -29l10 -803q0 -28 -28 -28h-76q-28 0 -28 28v189q0 29 -30 29h-342q-28 0 -28 -29v-189q0 -28 -30 -28h-75q-31 0 -28 28z" />
    <glyph glyph-name="uni041E" unicode="&#x41e;" horiz-adv-x="932" 
d="M466 784q-63 0 -114 -24.5t-87 -70t-55.5 -111t-19.5 -146.5q0 -67 19.5 -110.5t55.5 -69t87 -35.5t114 -10t114 10t87 35.5t55 69t19 110.5q0 81 -19 146.5t-55 111t-87 70t-114 24.5zM466 878q82 0 153.5 -31.5t124.5 -90t84 -140.5t31 -184t-31 -184t-84 -140.5
t-124.5 -90t-153.5 -31.5t-153.5 31.5t-125 89.5t-84 140.5t-30.5 184.5t30.5 184t84 140.5t125 90t153.5 31.5z" />
    <glyph glyph-name="uni041F" unicode="&#x41f;" 
 />
    <glyph glyph-name="uni0420" unicode="&#x420;" horiz-adv-x="741" 
d="M269 782q-29 0 -30 -28l-9 -221q-2 -29 28 -29h129q43 0 76.5 5t57 20.5t35.5 44t12 75.5q0 57 -46.5 95t-134.5 38h-118zM117 832q1 28 29 28h229q293 0 293 -257q0 -129 -73 -199t-220 -70h-112q-30 0 -30 -28l3 -278q0 -28 -30 -28h-105q-30 0 -28 29z" />
    <glyph glyph-name="uni0421" unicode="&#x421;" horiz-adv-x="829" 
d="M743 744q-4 -18 -11 -22t-23 6q-54 33 -111.5 45t-121.5 12q-147 0 -215 -90.5t-65 -262.5q1 -71 13.5 -115.5t44 -69.5t85 -34t137.5 -9q32 0 67.5 4.5t69 13t62.5 19.5t47 25q12 8 24 5t10 -22l-12 -158q-1 -11 -5 -18t-14 -16q-23 -21 -51 -34.5t-60.5 -21.5
t-67 -11.5t-70.5 -3.5q-106 0 -182 31t-125 88.5t-72.5 140t-23.5 186.5q0 103 26.5 186t78 140.5t126.5 88.5t172 31q72 0 137.5 -8t122.5 -37q23 -12 19 -34z" />
    <glyph glyph-name="uni0422" unicode="&#x422;" horiz-adv-x="875" 
d="M73 832q0 28 29 28h670q30 0 30 -28v-40q0 -31 -30 -29l-247 10q-30 2 -28 -30l28 -714q2 -29 -27 -29h-119q-30 0 -28 29l27 714q2 32 -28 30l-247 -10q-30 -2 -30 29v40z" />
    <glyph glyph-name="uni0423" unicode="&#x423;" 
 />
    <glyph glyph-name="uni0424" unicode="&#x424;" 
 />
    <glyph glyph-name="uni0425" unicode="&#x425;" horiz-adv-x="870" 
d="M125 826q-8 15 -2.5 24.5t22.5 9.5h63q24 0 35 -20l181 -311q9 -15 20 -15t20 15l182 311q11 20 35 20h62q17 0 22.5 -9.5t-2.5 -24.5l-232 -405q-6 -11 -6.5 -20t7.5 -20l258 -346q11 -14 5.5 -24.5t-23.5 -10.5h-135q-23 0 -35 20l-147 242q-9 14 -19.5 14t-19.5 -14
l-149 -242q-12 -20 -35 -20h-134q-19 0 -24 10t7 25l266 347q15 19 3 40z" />
    <glyph glyph-name="uni0426" unicode="&#x426;" 
 />
    <glyph glyph-name="uni0427" unicode="&#x427;" horiz-adv-x="641" 
d="M73 835q-1 25 24 25h64q25 0 24 -25l-14 -302q-2 -47 5 -78.5t23 -51t39.5 -27.5t53.5 -8q37 0 66.5 13.5t50 38t31 58t9.5 73.5l-9 284q-1 25 24 25h80q25 0 24 -25l-38 -811q-2 -24 -25 -24h-41q-24 0 -24 25l8 328q1 17 -7 19.5t-20 -10.5q-59 -62 -149 -62
q-94 0 -140.5 57.5t-49.5 172.5z" />
    <glyph glyph-name="uni0428" unicode="&#x428;" 
 />
    <glyph glyph-name="uni0429" unicode="&#x429;" 
 />
    <glyph glyph-name="uni042A" unicode="&#x42a;" 
 />
    <glyph glyph-name="uni042B" unicode="&#x42b;" 
 />
    <glyph glyph-name="uni042C" unicode="&#x42c;" 
 />
    <glyph glyph-name="uni042D" unicode="&#x42d;" 
 />
    <glyph glyph-name="uni042E" unicode="&#x42e;" 
 />
    <glyph glyph-name="uni042F" unicode="&#x42f;" horiz-adv-x="827" 
d="M468 782q-33 0 -65.5 -7.5t-58 -26.5t-41 -51t-15.5 -81q0 -26 15.5 -47t41 -35.5t58 -22t65.5 -7.5h129q30 0 29 28l-11 222q-1 28 -30 28h-117zM307 391q12 8 12 12.5t-13 11.5q-48 26 -75 75.5t-27 121.5q0 125 72.5 186.5t202.5 61.5h235q28 0 28 -28l12 -804
q0 -28 -28 -28h-107q-30 0 -28 28l24 307q1 28 -29 28h-69q-34 0 -62 -5.5t-51.5 -21t-43 -43t-36.5 -72.5l-77 -199q-9 -22 -34 -22h-115q-17 0 -22.5 9.5t2.5 24.5l100 201q30 60 64.5 98t64.5 58z" />
    <glyph glyph-name="uni0430" unicode="&#x430;" horiz-adv-x="608" 
d="M270 123q33 0 56.5 4.5t38.5 19t22.5 40.5t7.5 69q0 23 -24 23h-57q-46 0 -76.5 -4.5t-49.5 -14.5t-28 -25.5t-11 -36.5q-1 -8 -0.5 -14.5t3.5 -14.5q6 -16 17 -25t26 -13.5t34 -6t41 -1.5zM299 560q236 0 236 -248v-288q0 -24 -24 -24h-41q-25 0 -25 24v11
q0 17 -7.5 19.5t-19.5 -9.5q-29 -29 -68.5 -44t-93.5 -15q-42 0 -75.5 12.5t-57.5 35t-37 54.5t-13 71q0 186 246 186h102q24 0 24 9q0 63 -38 99.5t-117 40.5q-39 2 -76 -7t-72 -24q-13 -6 -21 -1.5t-8 18.5v21q0 20 20 28q84 31 166 31z" />
    <glyph glyph-name="uni0431" unicode="&#x431;" horiz-adv-x="743" 
 />
    </font>
</defs>
</svg>
